Тренер Картер / Coach Carter (Томас Картер) [2005, драма, спорт, BDRemux] | P :: Ивановский Торрент трекер
Важное объявление!
У Нас Все раздачи мультитрекерные, при нуле пиров в релизах, можете смело вставать на закачку!
Статистика раздачи
Размер:     |    Зарегистрирован:     |    Скачан:     |   
Нет
 
     
 
 
Автор Сообщение

Shalun

Стаж:
4 года 11 месяцев
Сообщений:
802

Репутация: 123

[+] [-]
Вне форума [Профиль] [ЛС]

-Тренер Картер / Coach Carter-Информация о фильме
Название: Тренер Картер
Оригинальное название: Coach Carter
Год выхода: 2005
Жанр: драма, спорт
Режиссер: Томас Картер
В ролях: Сэмюэл Л. Джексон, Роб Браун, Роберт Ричард, Рик Гонсалес, Нана Гбивонио, Энтвон Тэннер, Ченнинг Татум, Ашанти, Тексас Бэттл, Дениз Дауз
О фильме:
Фильм основан на реальной истории, происшедшей в 1999 году в Ричмонде, штат Калифорния. Тренер школьной команды по баскетболу Кен Картер принял в середине сезона беспрецедентное решение, запретив игрокам, не испытавшим еще ни одного поражения, выходить на площадку из-за низкой успеваемости в школе. В итоге команда пропустила две игры в чемпионате, а юным баскетболистам был закрыт доступ в спортзал до тех пор, пока они не стали хорошо учиться. Поступок Картера вызвал одновременно и одобрение, и резкую критику со стороны родителей игроков и школьного руководства. Среди членов команды был и сын тренера, поступивший впоследствии в престижное учебное заведение.

Страна: США, Германия
Продолжительность: 02:16:20
Перевод: Профессиональный (многоголосый, закадровый)
Файл
Кодек: 27
Качество: BDRemux
Видео: MPEG4 Video (H264) 1920x1080 23.976fps [Video] Bit rate 32.0 Mbps
Звук: Dolby AC3 48000Hz 6ch 448kbps [Audio]

MediaInfo

Format : BDAV
Format/Info : Blu-ray Video
File size : 32.2 GiB
Duration : 2h 16mn
Overall bit rate mode : Variable
Overall bit rate : 33.8 Mbps
Maximum Overall bit rate : 35.5 Mbps
Video
ID : 4113 (0x1011)
Menu ID : 1 (0x1)
Format : AVC
Format/Info : Advanced Video Codec
Format profile : High@L4.1
Format settings, CABAC : Yes
Format settings, ReFrames : 2 frames
Format settings, GOP : M=1, N=10
Codec ID : 27
Duration : 2h 16mn
Bit rate mode : Variable
Bit rate : 32.0 Mbps
Width : 1 920 pixels
Height : 1 080 pixels
Display aspect ratio : 16:9
Frame rate : 23.976 fps
Color space : YUV
Chroma subsampling : 4:2:0
Bit depth : 8 bits
Scan type : Progressive
Bits/(Pixel*Frame) : 0.644
Stream size : 30.5 GiB (95%)
Audio
ID : 4352 (0x1100)
Menu ID : 1 (0x1)
Format : AC-3
Format/Info : Audio Coding 3
Mode extension : CM (complete main)
Format settings, Endianness : Big
Codec ID : 129
Duration : 2h 16mn
Bit rate mode : Constant
Bit rate : 448 Kbps
Channel(s) : 6 channels
Channel positions : Front: L C R, Side: L R, LFE
Sampling rate : 48.0 KHz
Bit depth : 16 bits
Compression mode : Lossy
Stream size : 437 MiB (1%)

Скриншоты

-

_________________
Показать сообщения:    

Текущее время: Сегодня 17:44

Часовой пояс: GMT



Вы не можете начинать темы
Вы не можете отвечать на сообщения
Вы не можете редактировать свои сообщения
Вы не можете удалять свои сообщения
Вы не можете голосовать в опросах
Вы не можете прикреплять файлы к сообщениям
Вы не можете скачивать файлы