Ивановский Торрент трекер
Яндекс.Погода
 

[Цитировать]
HUNTER

Трансформеры / Transformers [Hybrid]- Год выпуска: 2007
Выпущено: США
Жанр: фантастика, боевик
Продолжительность: 02:23:27
Перевод: Профессиональный (полное дублирование)
+ Профессиональный (многоголосый, закадровый) Позитив-Мультимедиа
+ Профессиональный (многоголосый, закадровый) Киномания
+ Профессиональный (двухголосый, закадровый) П.Гланц и И.Королева
+ Профессиональный (двухголосый, закадровый) Супербит (Мужские роли озвучил Эльдар Куртсеитов)
+ Авторский одноголосый Ю.Живов
+ Авторский одноголосый А.Гаврилов
Оригинальная звуковая дорожка: English
Субтитры: Russian (надписи и пр.), Russian (Blu-ray CEE), Russian (Киномания), Ukrainian (надписи и пр.), Ukrainian (Blu-ray CEE), English-Режиссер: Майкл Бэй / Michael Bay
В ролях: Шайа ЛаБаф, Меган Фокс, Джош Дюамель, Тайриз Гибсон, Рэйчел Тейлор, Энтони Андерсон, Джон Войт, Джон Туртурро, Майкл О’Нил, Кевин Данн
О фильме: В течение многих столетий две расы роботов-инопланетян — Автоботы и Десептиконы — вели войну, ставкой в которой была судьба Bселенной. И вот война докатилась до Земли. В то время, когда силы зла ищут ключ к верховной власти, наш последний шанс на спасение находится в руках юного землянина. Единственное, что стоит между несущими зло Десептиконами и высшей властью — это ключ, находящийся в руках простого парнишки. Обычный подросток, Сэм Уитвикки озабочен повседневными хлопотами — школа, друзья, машины, девочки. Не ведая о том, что он является последним шансом человечества на спасение, Сэм вместе со своей подругой Микаэлой оказывается вовлеченным в противостояние Автоботов и Десептиконов. Только тогда Сэм понимает истинное значение семейного девиза Уитвикки — «без жертв нет победы!»
Релиз: на основе релиза
Тип релиза: BDRip 720p
Источник #1: Transformers 2007 Blu-ray CEE 1080p AVC TrueHD 5.1
Источник #2: Transformers 2007 HDDVDRemux
Формат: MKV
Видео: 1280x534 at 23.976 fps, x264@L4.1, crf, ~9200 kbps avg
Аудио #01: Russian: 48 kHz, AC3, 3/2 (L,C,R,l,r) + LFE ch, ~640.00 kbps avg |Дубляж, Blu-ray CEE|
Аудио #02: Ukrainian: 48 kHz, AC3, 3/2 (L,C,R,l,r) + LFE ch, ~384.00 kbps avg |Дубляж, DVD R5|
Аудио #03: Russian: 48 kHz, DTS, 3/2 (L,C,R,l,r) + LFE ch, ~1536.00 kbps avg |Многоголосый закадровый, Позитив-Мультимедия|
Аудио #04: Russian: 48 kHz, DTS, 3/2 (L,C,R,l,r) + LFE ch, ~1536.00 kbps avg |Двухголосый закадровый, П.Гланц, И. Королёва|
Аудио #05: Russian: 48 kHz, AC3, 3/2 (L,C,R,l,r) + LFE ch, ~448.00 kbps avg |Многоголосый закадровый, Киномания|
Аудио #06: Russian: 48 kHz, AC3, 2/0 (L,R), ~192.00 kbps avg |Двухголосый закадровый, Супербит|
Аудио #07: Russian: 48 kHz, DTS, 3/2 (L,C,R,l,r) + LFE ch, ~1536.00 kbps avg |Одноголосый закадровый, Ю. Живов|
Аудио #08: Russian: 48 kHz, DTS, 3/2 (L,C,R,l,r) + LFE ch, ~1536.00 kbps avg |Одноголосый закадровый, А. Гаврилов|
Аудио #09: English: 48 kHz, DTS, 3/2 (L,C,R,l,r) + LFE ch, ~1536.00 kbps avg |Original from BD|
Семпл-

Source Vs Encode





-

Log

x264 [info]: frame I:1507 Avg QP:16.24 size:131490
x264 [info]: frame P:57192 Avg QP:17.85 size: 69829
x264 [info]: frame B:147669 Avg QP:20.24 size: 39077

-

mInfo

Формат : Matroska
Версия формата : Version 4 / Version 2
Размер файла : 18,5 Гбайт
Продолжительность : 2 ч. 23 м.
Общий поток : 18,5 Мбит/сек
Дата кодирования : UTC 2016-03-25 02:32:22
Программа кодирования : mkvmerge v7.0.0 ('Where We Going') 32bit built on Jun 9 2014 15:08:34
Библиотека кодирования : libebml v1.3.0 + libmatroska v1.4.1
Attachements : cover
_STATISTICS_WRITING_APP : mkvmerge v7.0.0 ('Where We Going') 32bit built on Jun 9 2014 15:08:34
_STATISTICS_WRITING_DATE_UTC : 2016-03-25 02:32:22
_STATISTICS_TAGS : BPS DURATION NUMBER_OF_FRAMES NUMBER_OF_BYTES
DURATION : 02:23:27.040000000
NUMBER_OF_FRAMES : 268970
NUMBER_OF_BYTES : 206568960
Видео
Идентификатор : 1
Формат : AVC
Формат/Информация : Advanced Video Codec
Профиль формата : High@L4.1
Параметр CABAC формата : Да
Параметр ReFrames формата : 12 кадров
Идентификатор кодека : V_MPEG4/ISO/AVC
Продолжительность : 2 ч. 23 м.
Битрейт : 8899 Кбит/сек
Ширина : 1280 пикселей
Высота : 534 пикселя
Соотношение сторон : 2,40:1
Режим частоты кадров : Постоянный
Частота кадров : 23,976 кадра/сек
Цветовое пространство : YUV
Субдискретизация насыщенности : 4:2:0
Битовая глубина : 8 бит
Тип развёртки : Прогрессивная
Бит/(Пиксели*Кадры) : 0.543
Размер потока : 8,92 Гбайт (48%)
Заголовок : Transformers (2007) 720p BDRip
Библиотека кодирования : x264 core 148 r2665kMod a01e339
Настройки программы : cabac=1 / ref=12 / deblock=1:-3:-3 / analyse=0x3:0x113 / me=umh / subme=10 / psy=1 / fade_compensate=0.00 / psy_rd=1.00:0.00 / mixed_ref=1 / me_range=64 / chroma_me=1 / trellis=2 / 8x8dct=1 / cqm=0 / deadzone=21,11 / fast_pskip=0 / chroma_qp_offset=-2 / threads=12 / lookahead_threads=3 / sliced_threads=0 / nr=0 / decimate=1 / interlaced=0 / bluray_compat=0 / constrained_intra=0 / fgo=0 / bframes=12 / b_pyramid=2 / b_adapt=2 / b_bias=0 / direct=1 / weightb=1 / open_gop=0 / weightp=2 / keyint=250 / keyint_min=23 / scenecut=40 / intra_refresh=0 / rc_lookahead=50 / rc=crf / mbtree=0 / crf=16.3000 / qcomp=0.60 / qpmin=0 / qpmax=69 / qpstep=4 / vbv_maxrate=50000 / vbv_bufsize=62500 / crf_max=0.0 / nal_hrd=none / filler=0 / ip_ratio=1.40 / pb_ratio=1.30 / aq=1:1.00
Язык : Russian
Default : Да
Forced : Нет
Аудио #1
Идентификатор : 2
Формат : AC-3
Формат/Информация : Audio Coding 3
Расширение режима : CM (complete main)
Параметр Endianness формата : Big
Идентификатор кодека : A_AC3
Продолжительность : 2 ч. 23 м.
Вид битрейта : Постоянный
Битрейт : 640 Кбит/сек
Каналы : 6 каналов
Расположение каналов : Front: L C R, Side: L R, LFE
Частота : 48,0 КГц
Битовая глубина : 16 бит
Метод сжатия : С потерями
Размер потока : 657 Мбайт (3%)
Заголовок : [Blu-ray CEE] Dub - AC3 5.1 @ 640 kbps
Язык : Russian
Default : Да
Forced : Нет
Аудио #2
Идентификатор : 3
Формат : AC-3
Формат/Информация : Audio Coding 3
Расширение режима : CM (complete main)
Параметр Endianness формата : Big
Идентификатор кодека : A_AC3
Продолжительность : 2 ч. 23 м.
Вид битрейта : Постоянный
Битрейт : 384 Кбит/сек
Каналы : 6 каналов
Расположение каналов : Front: L C R, Side: L R, LFE
Частота : 48,0 КГц
Битовая глубина : 16 бит
Метод сжатия : С потерями
Размер потока : 394 Мбайт (2%)
Заголовок : [DVD R5] Dub - AC3 5.1 @ 384 kbps
Язык : Ukrainian
Default : Нет
Forced : Нет
Аудио #3
Идентификатор : 4
Формат : DTS
Формат/Информация : Digital Theater Systems
Режим : 16
Параметр Endianness формата : Big
Идентификатор кодека : A_DTS
Продолжительность : 2 ч. 23 м.
Вид битрейта : Постоянный
Битрейт : 1509 Кбит/сек
Каналы : 6 каналов
Расположение каналов : Front: L C R, Side: L R, LFE
Частота : 48,0 КГц
Битовая глубина : 24 бит
Метод сжатия : С потерями
Размер потока : 1,51 Гбайт (8%)
Заголовок : [Позитив-Мультимедия] Mvo - DTS 5.1 @ 1536 kbps
Язык : Russian
Default : Нет
Forced : Нет
Аудио #4
Идентификатор : 5
Формат : DTS
Формат/Информация : Digital Theater Systems
Режим : 16
Параметр Endianness формата : Big
Идентификатор кодека : A_DTS
Продолжительность : 2 ч. 23 м.
Вид битрейта : Постоянный
Битрейт : 1509 Кбит/сек
Каналы : 6 каналов
Расположение каналов : Front: L C R, Side: L R, LFE
Частота : 48,0 КГц
Битовая глубина : 24 бит
Метод сжатия : С потерями
Размер потока : 1,51 Гбайт (8%)
Заголовок : [П.Гланц, И. Королёва] Dvo - DTS 5.1 @ 1536 kbps
Язык : Russian
Default : Нет
Forced : Нет
Аудио #5
Идентификатор : 6
Формат : AC-3
Формат/Информация : Audio Coding 3
Расширение режима : CM (complete main)
Параметр Endianness формата : Big
Идентификатор кодека : A_AC3
Продолжительность : 2 ч. 23 м.
Вид битрейта : Постоянный
Битрейт : 448 Кбит/сек
Каналы : 6 каналов
Расположение каналов : Front: L C R, Side: L R, LFE
Частота : 48,0 КГц
Битовая глубина : 16 бит
Метод сжатия : С потерями
Размер потока : 460 Мбайт (2%)
Заголовок : [Киномания] Mvo - AC3 5.1 @ 448 kbps
Язык : Russian
Default : Нет
Forced : Нет
Аудио #6
Идентификатор : 7
Формат : AC-3
Формат/Информация : Audio Coding 3
Расширение режима : CM (complete main)
Параметр Endianness формата : Big
Идентификатор кодека : A_AC3
Продолжительность : 2 ч. 23 м.
Вид битрейта : Постоянный
Битрейт : 192 Кбит/сек
Каналы : 2 канала
Расположение каналов : Front: L R
Частота : 48,0 КГц
Битовая глубина : 16 бит
Метод сжатия : С потерями
Размер потока : 197 Мбайт (1%)
Заголовок : [Супербит] Dvo - AC3 2.0 @ 192 kbps
Язык : Russian
Default : Нет
Forced : Нет
Аудио #7
Идентификатор : 8
Формат : DTS
Формат/Информация : Digital Theater Systems
Режим : 16
Параметр Endianness формата : Big
Идентификатор кодека : A_DTS
Продолжительность : 2 ч. 23 м.
Вид битрейта : Постоянный
Битрейт : 1509 Кбит/сек
Каналы : 6 каналов
Расположение каналов : Front: L C R, Side: L R, LFE
Частота : 48,0 КГц
Битовая глубина : 24 бит
Метод сжатия : С потерями
Размер потока : 1,51 Гбайт (8%)
Заголовок : [Ю. Живов] Avo - DTS 5.1 @ 1536 kbps
Язык : Russian
Default : Нет
Forced : Нет
Аудио #8
Идентификатор : 9
Формат : DTS
Формат/Информация : Digital Theater Systems
Режим : 16
Параметр Endianness формата : Big
Идентификатор кодека : A_DTS
Продолжительность : 2 ч. 23 м.
Вид битрейта : Постоянный
Битрейт : 1509 Кбит/сек
Каналы : 6 каналов
Расположение каналов : Front: L C R, Side: L R, LFE
Частота : 48,0 КГц
Битовая глубина : 24 бит
Метод сжатия : С потерями
Размер потока : 1,51 Гбайт (8%)
Заголовок : [А. Гаврилов] Avo - DTS 5.1 @ 1536 kbps
Язык : Russian
Default : Нет
Forced : Нет
Аудио #9
Идентификатор : 10
Формат : DTS
Формат/Информация : Digital Theater Systems
Режим : 16
Параметр Endianness формата : Big
Идентификатор кодека : A_DTS
Продолжительность : 2 ч. 23 м.
Вид битрейта : Постоянный
Битрейт : 1509 Кбит/сек
Каналы : 6 каналов
Расположение каналов : Front: L C R, Side: L R, LFE
Частота : 48,0 КГц
Битовая глубина : 24 бит
Метод сжатия : С потерями
Размер потока : 1,51 Гбайт (8%)
Заголовок : [Original from BD] DTS 5.1 @ 1536 kbps
Язык : English
Default : Нет
Forced : Нет
Текст #1
Идентификатор : 11
Формат : UTF-8
Идентификатор кодека : S_TEXT/UTF8
Идентификатор кодека/Информация : UTF-8 Plain Text
Заголовок : [SRT/UTF8] Forced
Язык : Russian
Default : Да
Forced : Нет
Текст #2
Идентификатор : 12
Формат : UTF-8
Идентификатор кодека : S_TEXT/UTF8
Идентификатор кодека/Информация : UTF-8 Plain Text
Заголовок : [SRT/UTF8] Forced
Язык : Ukrainian
Default : Нет
Forced : Нет
Текст #3
Идентификатор : 13
Формат : UTF-8
Идентификатор кодека : S_TEXT/UTF8
Идентификатор кодека/Информация : UTF-8 Plain Text
Заголовок : [SRT/UTF8] Full - BD
Язык : Russian
Default : Нет
Forced : Нет
Текст #4
Идентификатор : 14
Формат : UTF-8
Идентификатор кодека : S_TEXT/UTF8
Идентификатор кодека/Информация : UTF-8 Plain Text
Заголовок : [SRT/UTF8] Full - Киномания
Язык : Russian
Default : Нет
Forced : Нет
Текст #5
Идентификатор : 15
Формат : UTF-8
Идентификатор кодека : S_TEXT/UTF8
Идентификатор кодека/Информация : UTF-8 Plain Text
Заголовок : [SRT/UTF8] Full
Язык : Ukrainian
Default : Нет
Forced : Нет
Текст #6
Идентификатор : 16
Формат : UTF-8
Идентификатор кодека : S_TEXT/UTF8
Идентификатор кодека/Информация : UTF-8 Plain Text
Заголовок : [SRT/UTF8] Full
Язык : English
Default : Нет
Forced : Нет
Меню
00:00:00.000 : :Titles and Intro
00:02:04.707 : :Raid At Qatar
00:08:54.534 : :Getting Chosen By A Car, school and funding
00:15:33.641 : :The Pentagon And Ladies Man
00:22:21.381 : :Driving With Mikaela
00:27:42.661 : :The Pentagon And Airforce One
00:33:25.378 : :A Car That Drives Off By Itself
00:38:58.002 : :Qatar, A Fight In The Desert
00:45:13.919 : :Hacker Glen Gets Shown Classifed
00:51:46.436 : :Sam And Mikaela get to know the car
00:58:44.687 : :New Arrivals From Space
01:06:48.421 : :Some Aspects Of The Artifact
01:11:53.559 : :Sam looking for the glasses
01:16:56.445 : :Sector Seven
01:23:37.345 : :Sector Seven Undies
01:29:04.172 : :The Glasses
01:36:28.741 : :Megatron, MBE 1, The Ice Man
01:43:58.106 : :Bumblebee And The All Spark
01:49:45.745 : :Leading The Decepticons To The Big City
01:56:54.007 : :Megatron In Full Flow
02:03:09.882 : :The Tow Gets Going
02:10:43.919 : :The Death Of Megatron
02:15:02.302 : :End Credits

-
Цитата:

* Сохранены оригинальные главы как на Blu-ray.
* Все русские DTS получены путем наложения чистого блаблабла на оригинал.
* За дорожку Позитив-Мультимедия для первой части спасибо Shan1!
* За предоставленные чистые голоса благодарим В. Стаханова!
* Отдельная благодарность за помощь Electr0man
* HDDVD source is better that Blu-ray in most of the Action scenes but suffers from low bitrate. Blu-ray source is better in different parts of the movie. Few scenes having minor blocking are fixed
Показать сообщения:    

Текущее время: 20-Сен 19:00

Часовой пояс: UTC - 1


Вы не можете начинать темы
Вы не можете отвечать на сообщения
Вы не можете редактировать свои сообщения
Вы не можете удалять свои сообщения
Вы не можете голосовать в опросах
Вы не можете прикреплять файлы к сообщениям
Вы не можете скачивать файлы

!ВНИМАНИЕ!
Сайт не предоставляет электронные версии произведений, а занимается лишь коллекционированием и каталогизацией ссылок, присылаемых и публикуемых на форуме нашими читателями. Если вы являетесь правообладателем какого-либо представленного материала и не желаете, чтобы ссылка на него находилась в нашем каталоге, свяжитесь с нами, и мы незамедлительно удалим ее. Файлы для обмена на трекере предоставлены пользователями сайта, и администрация не несет ответственности за их содержание. Просьба не заливать файлы, защищенные авторскими правами, а также файлы нелегального содержания!