Ивановский Торрент трекер
Яндекс.Погода
 

[Цитировать]
HUNTER

Трансформеры 3: Тёмная сторона Луны в 3Д / Transformers: Dark of the Moon 3D
Год выпуска: 2011
Страна: США
Студия: Paramount Pictures
Жанр: Фантастика, боевик, приключения
Продолжительность: 02:34:23
Перевод: Профессиональный (дублированный)
Русские субтитры: есть
Режиссер: Майкл Бэй / Michael Bay
В ролях: Шайа ЛаБаф, Джош Дюамель, Джон Туртурро, Тайриз Гибсон, Роузи Хантингтон-Уайтли, Патрик Демпси, Кевин Данн, Джули Уайт, Джон Малкович, Питер Каллен
Описание: Для наших героев наступили печальные будни: Сэм потерял Микаэлу, правительство выпускает законодательный акт о выселении Автоботов с Земли, а пока Мегатрон скрывается после позорного поражения Фоллена, десептикон Шокуэйв, правитель Кибертрона, готовится нанести визит нашей планете с совсем недобрыми намерениями. Действие заключительной части трилогии на этот раз охватит не только Землю, но и Луну, темная сторона которой хранит не менее темные тайны.
Сэмпл: http://yadi.sk/d/T4rly8wn59THi
Качество: BDrip
Контейнер: MKV
Формат 3D: Half SideBySide / Горизонтальная анаморфная стереопара
Порядок ракурсов: левый ракурс первый
Видео кодек: x264
Аудио кодек: AC3
Видео: AVC / 24,000 fps / 1920х1080p / 7678 Kbps
Аудио: Русский / AC3 / 48 KHz / 5.1 ch / 640 Kbps (Лицензия)
Аудио 2: Английский / AC3 / 48 KHz / 5.1 ch / 640 Kbps (оригинал)
Субтитры: Русские полные

MediaInfo

General
Unique ID : 192441413922057890775452294990795272597 (0x90C6DE3FD12A9815B7208B1535067195)
Complete name : D:\Films\Transformers.3.3D.halfSBS.mkv
Format : Matroska
Format version : Version 4 / Version 2
File size : 9.86 GiB
Duration : 2h 34mn
Overall bit rate : 9 140 Kbps
Encoded date : UTC 2013-05-25 10:43:07
Writing application : mkvmerge v6.1.0 ('Old Devil') built on Mar 2 2013 14:32:37
Writing library : libebml v1.3.0 + libmatroska v1.4.0
Video
ID : 1
Format : AVC
Format/Info : Advanced Video Codec
Format profile : Baseline@L4.0
Format settings, CABAC : No
Format settings, ReFrames : 4 frames
Format settings, GOP : M=1, N=12
Codec ID : V_MPEG4/ISO/AVC
Duration : 2h 34mn
Bit rate : 7 678 Kbps
Width : 1 920 pixels
Height : 1 080 pixels
Display aspect ratio : 16:9
Frame rate mode : Constant
Frame rate : 24.000 fps
Standard : NTSC
Color space : YUV
Chroma subsampling : 4:2:0
Bit depth : 8 bits
Scan type : Progressive
Bits/(Pixel*Frame) : 0.154
Stream size : 8.28 GiB (84%)
Language : English
Default : Yes
Forced : No
Color primaries : BT.601 NTSC
Transfer characteristics : BT.601
Matrix coefficients : BT.601
Audio #1
ID : 2
Format : AC-3
Format/Info : Audio Coding 3
Mode extension : CM (complete main)
Format settings, Endianness : Big
Codec ID : A_AC3
Duration : 2h 34mn
Bit rate mode : Constant
Bit rate : 640 Kbps
Channel(s) : 6 channels
Channel positions : Front: L C R, Side: L R, LFE
Sampling rate : 48.0 KHz
Bit depth : 16 bits
Compression mode : Lossy
Stream size : 707 MiB (7%)
Language : Russian
Default : Yes
Forced : No
Audio #2
ID : 3
Format : AC-3
Format/Info : Audio Coding 3
Mode extension : CM (complete main)
Format settings, Endianness : Big
Codec ID : A_AC3
Duration : 2h 34mn
Bit rate mode : Constant
Bit rate : 640 Kbps
Channel(s) : 6 channels
Channel positions : Front: L C R, Side: L R, LFE
Sampling rate : 48.0 KHz
Bit depth : 16 bits
Compression mode : Lossy
Stream size : 707 MiB (7%)
Language : English
Default : No
Forced : No
Text
ID : 4
Format : UTF-8
Codec ID : S_TEXT/UTF8
Codec ID/Info : UTF-8 Plain Text
Language : Russian
Default : No
Forced : No
Menu
00:00:00.000 : :Chapter 01
00:08:52.573 : :Chapter 02
00:14:26.615 : :Chapter 03
00:20:20.928 : :Chapter 04
00:28:48.143 : :Chapter 05
00:36:18.634 : :Chapter 06
00:45:18.549 : :Chapter 07
00:51:53.026 : :Chapter 08
00:56:34.224 : :Chapter 09
01:04:13.307 : :Chapter 10
01:12:56.705 : :Chapter 11
01:19:09.077 : :Chapter 12
01:23:41.391 : :Chapter 13
01:28:44.819 : :Chapter 14
01:35:13.082 : :Chapter 15
01:42:44.158 : :Chapter 16
01:49:12.337 : :Chapter 17
01:56:42.912 : :Chapter 18
02:04:59.116 : :Chapter 19
02:11:29.590 : :Chapter 20
02:19:10.884 : :Chapter 21
02:25:37.520 : :Chapter 22
02:34:23.337 : :Chapter 23

Скриншоты

Показать сообщения:    

Текущее время: 23-Окт 19:52

Часовой пояс: UTC - 1


Вы не можете начинать темы
Вы не можете отвечать на сообщения
Вы не можете редактировать свои сообщения
Вы не можете удалять свои сообщения
Вы не можете голосовать в опросах
Вы не можете прикреплять файлы к сообщениям
Вы не можете скачивать файлы

!ВНИМАНИЕ!
Сайт не предоставляет электронные версии произведений, а занимается лишь коллекционированием и каталогизацией ссылок, присылаемых и публикуемых на форуме нашими читателями. Если вы являетесь правообладателем какого-либо представленного материала и не желаете, чтобы ссылка на него находилась в нашем каталоге, свяжитесь с нами, и мы незамедлительно удалим ее. Файлы для обмена на трекере предоставлены пользователями сайта, и администрация не несет ответственности за их содержание. Просьба не заливать файлы, защищенные авторскими правами, а также файлы нелегального содержания!