Ивановский Торрент трекер
Яндекс.Погода
 

[Цитировать]
ForZe

Трансформеры 3: Темная сторона Луны / Transformers: Dark of the Moon- Страна: США, Paramount Pictures
Жанр: фантастика, боевик, приключения
Год выпуска: 2011
Продолжительность: 02:34:23-Перевод: Профессиональный (полное дублирование)
Cубтитры: нет
Оригинальная аудиодорожка: нет-Режиссер: Майкл Бэй
В ролях: Шайа ЛаБаф, Джош Дюамель, Джон Туртурро, Тайриз Гибсон, Роузи Хантингтон-Уайтли, Патрик Демпси, Кевин Данн, Джули Уайт, Джон Малкович, Питер Каллен-Описание: Для наших героев наступили печальные будни: Сэм потерял Микаэлу, правительство выпускает законодательный акт о выселении Автоботов с Земли, а пока Мегатрон скрывается после позорного поражения Фоллена, десептикон Шокуэйв, правитель Кибертрона, готовится нанести визит нашей планете с совсем недобрыми намерениями. Действие заключительной части трилогии на этот раз охватит не только Землю, но и Луну, темная сторона которой хранит не менее темные тайны.-Сэмпл: http://multi-up.com/590145
Качество видео: BDRip-AVC
Формат видео: MKV
Видео: x264, 864x360 (2.40:1); 2248 Kbps; 23,976 fps; 0,301 bpp
Аудио: Russian; AC3; 6ch; 448 kbps; 48Hz

x264 log

--[Information] [04.11.2011 23:28:02] Encoding started--[Information] [05.11.2011 19:05:20] Standard output stream--[Information] [05.11.2011 19:05:20] Standard error stream---[NoImage] avs [info]: 864x360p 1:1 @ 24000/1001 fps (cfr)---[NoImage] x264 [info]: using SAR=1/1---[NoImage] x264 [info]: using cpu capabilities: MMX2 SSE2Fast SSSE3 FastShuffle SSE4.1 Cache64---[NoImage] x264 [info]: profile High, level 4.1---[NoImage]---[NoImage] x264 [info]: frame I:1998 Avg QP:18.46 size: 56743---[NoImage] x264 [info]: frame P:59724 Avg QP:22.19 size: 20836---[NoImage] x264 [info]: frame B:160374 Avg QP:24.48 size: 7748---[NoImage] x264 [info]: consecutive B-frames: 3.5% 5.0% 15.1% 43.7% 14.9% 14.0% 1.9% 0.9% 0.6% 0.3%---[NoImage] x264 [info]: mb I I16..4: 4.6% 66.0% 29.3%---[NoImage] x264 [info]: mb P I16..4: 1.1% 15.4% 4.8% P16..4: 34.4% 25.1% 8.2% 6.2% 0.7% skip: 4.1%---[NoImage] x264 [info]: mb B I16..4: 0.2% 2.5% 0.8% B16..8: 36.8% 21.5% 4.5% direct: 6.6% skip:27.1% L0:37.6% L1:43.8% BI:18.6%---[NoImage] x264 [info]: 8x8 transform intra:71.6% inter:54.6%---[NoImage] x264 [info]: direct mvs spatial:93.7% temporal:6.3%---[NoImage] x264 [info]: coded y,uvDC,uvAC intra: 89.5% 88.0% 68.0% inter: 32.7% 27.1% 12.7%---[NoImage] x264 [info]: i16 v,h,dc,p: 43% 15% 5% 37%---[NoImage] x264 [info]: i8 v,h,dc,ddl,ddr,vr,hd,vl,hu: 11% 7% 5% 10% 14% 13% 14% 11% 14%---[NoImage] x264 [info]: i4 v,h,dc,ddl,ddr,vr,hd,vl,hu: 12% 7% 6% 9% 15% 13% 14% 11% 14%---[NoImage] x264 [info]: i8c dc,h,v,p: 42% 22% 17% 19%---[NoImage] x264 [info]: Weighted P-Frames: Y:15.3% UV:9.1%---[NoImage] x264 [info]: ref P L0: 54.4% 6.9% 16.3% 6.7% 4.8% 3.2% 3.0% 2.2% 1.9% 0.5% 0.1%---[NoImage] x264 [info]: ref B L0: 77.5% 10.4% 4.6% 3.1% 1.7% 1.3% 0.9% 0.5%---[NoImage] x264 [info]: ref B L1: 93.6% 6.4%---[NoImage] x264 [info]: kb/s:2245.73---[NoImage] encoded 222096 frames, 3.14 fps, 2245.73 kb/s--[Information] Final statistics---[Information] [05.11.2011 19:05:22] Video Bitrate Desired: 2248 kbit/s---[Information] [05.11.2011 19:05:22] Video Bitrate Obtained (approximate): 2247 kbit/s--[Information] [05.11.2011 19:05:22] MediaInfo---[Information] File: D:\rip\transformers 3\Новая папка\SCRIPT8790.mkv---[Information] General----[Information] Format: Matroska----[Information] FormatString: Matroska----[Information] FileSize: 2602023711----[Information] PlayTime: 02:34:23.254---[Information] Video----[Information] ID: 1----[Information] Width: 864----[Information] Height: 360----[Information] FrameCount: 222096----[Information] FrameRate: 23.976----[Information] ScanType: Progressive----[Information] Codec: V_MPEG4/ISO/AVC----[Information] CodecString: AVC----[Information] Format: AVC----[Information] AspectRatio: 2.400----[Information] AspectRatioString: 2.40:1----[Information] Delay: 0----[Information] Title:----[Information] Language: en----[Information] LanguageString: English--[Information] [05.11.2011 19:05:22] Postprocessing---[Information] Deleting intermediate files--[Information] [05.11.2011 19:05:22] Job completed

MediaInfo

Формат                           : Matroska
Размер файла                     : 2,91 Гбайт
Продолжительность                : 2 ч. 34 м.
Общий поток                      : 2695 Кбит/сек
Дата кодирования                 : UTC 2011-11-05 15:37:10
Программа кодирования            : mkvmerge v4.9.1 ('Ich will') сборка от Jul 11 2011 23:53:15
Библиотека кодирования           : libebml v1.2.1 + libmatroska v1.1.1
Видео
Идентификатор                    : 1
Формат                           : AVC
Формат/Информация                : Advanced Video Codec
Профиль формата                  : High@L4.1
Параметр CABAC формата           : Да
Параметр ReFrames формата        : 9 кадры
Идентификатор кодека             : V_MPEG4/ISO/AVC
Продолжительность                : 2 ч. 34 м.
Битрейт                          : 2248 Кбит/сек
Ширина                           : 864 пикс.
Высота                           : 360 пикс.
Соотношение сторон               : 2,40:1
Частота кадров                   : 23,976 кадр/сек
Цветовое пространство            : YUV
Подвыборка цветности             : 4:2:0
Битовая глубина                  : 8 бит
Тип развёртки                    : Прогрессивная
Бит/(Пиксели*Кадры)              : 0.301
Размер потока                    : 2,37 Гбайт (81%)
Библиотека кодирования           : x264 core 116 r2074 2641b9e
Настройки программы              : cabac=1 / ref=9 / deblock=1:-3:-2 / analyse=0x3:0x133 / me=umh / subme=11 / psy=1 / psy_rd=1.00:0.00 / mixed_ref=0 / me_range=32 / chroma_me=1 / trellis=2 / 8x8dct=1 / cqm=0 / deadzone=21,11 / fast_pskip=0 / chroma_qp_offset=-2 / threads=3 / sliced_threads=0 / nr=0 / decimate=0 / interlaced=0 / bluray_compat=0 / constrained_intra=0 / bframes=9 / b_pyramid=2 / b_adapt=2 / b_bias=0 / direct=3 / weightb=1 / open_gop=0 / weightp=2 / keyint=250 / keyint_min=23 / scenecut=40 / intra_refresh=0 / rc=2pass / mbtree=0 / bitrate=2248 / ratetol=1.0 / qcomp=0.60 / qpmin=0 / qpmax=69 / qpstep=4 / cplxblur=20.0 / qblur=0.5 / ip_ratio=1.40 / pb_ratio=1.30 / aq=1:1.00
Язык                             : English
Аудио
Идентификатор                    : 2
Формат                           : AC-3
Формат/Информация                : Audio Coding 3
Расширение режима                : CM (complete main)
Идентификатор кодека             : A_AC3
Продолжительность                : 2 ч. 34 м.
Вид битрейта                     : Постоянный
Битрейт                          : 448 Кбит/сек
Канал(ы)                         : 6 канала(ов)
Расположение каналов             : Front: L C R, Side: L R, LFE
Частота                          : 48,0 КГц
Битовая глубина                  : 16 бит
Метод сжатия                     : С потерями
Размер потока                    : 495 Мбайт (17%)
Заголовок                        : Дублированный перевод
Язык                             : Russian


Показать сообщения:    

Текущее время: 13-Дек 07:39

Часовой пояс: UTC ± 0


Вы не можете начинать темы
Вы не можете отвечать на сообщения
Вы не можете редактировать свои сообщения
Вы не можете удалять свои сообщения
Вы не можете голосовать в опросах
Вы не можете прикреплять файлы к сообщениям
Вы не можете скачивать файлы

!ВНИМАНИЕ!
Сайт не предоставляет электронные версии произведений, а занимается лишь коллекционированием и каталогизацией ссылок, присылаемых и публикуемых на форуме нашими читателями. Если вы являетесь правообладателем какого-либо представленного материала и не желаете, чтобы ссылка на него находилась в нашем каталоге, свяжитесь с нами, и мы незамедлительно удалим ее. Файлы для обмена на трекере предоставлены пользователями сайта, и администрация не несет ответственности за их содержание. Просьба не заливать файлы, защищенные авторскими правами, а также файлы нелегального содержания!