Важное объявление!
У Нас Все раздачи мультитрекерные, при нуле пиров в релизах, можете смело вставать на закачку!
Статистика раздачи
Размер:     |    Зарегистрирован:     |    Скачан:     |   
Нет
 
     
 
 
Автор Сообщение

HUNTER

Стаж:
5 лет
Сообщений:
67992

Репутация: 101

[+] [-]
Вне форума [Профиль] [ЛС]

«Prepare for extinction»
Год выпуска: 2014
Производство: США, Китай / Paramount Pictures, Hasbro, Di Bonaventura Pictures
Жанр: Фантастика, боевик, приключения
Перевод: Дублированный
Режиссер: Майкл Бэй
Продюсеры: Йен Брайс, Том ДеСанто, Лоренцо Ди Бонавентура
Актеры: Марк Уолберг, Никола Пельц, Джек Рейнор, Брентон Туэйтс, Келси Грэммер, София Майлс, Эбигейл Клейн, Джек Рейнор, Титус Уэлливер, Питер Каллен, ТиДжей Миллер
Описание фильма:
Автоботы и десептиконы покинули планету, оставив человечество собирать ее по кусочкам. Между тем группа могущественных бизнесменов и гениальных ученых пытается извлечь уроки из ошибок прошлого и улучшить технологии до такой степени, чтобы выйти за пределы контролируемого ранее. В это время другая группа — древних мощных трансформеров — берет Землю под прицел.-Дата мировой премьеры: 25 июня 2014
Дата российской премьеры: 26 июня 2014, «Централ Партнершип» 3D
Дата выхода DVD/Blu-Ray: Ноябрь 2014, «Новый Диск»
-Продолжительность: 00:02:31
Качество видео: HDTVRip [1080p]
Видео: MPEG-4 AVC/H.264, 1920х1080, 12,0 Мбит/сек
Аудио: AAC 2.0, 150 Кбит/сек [Русский]

MediaInfo:

Общее
Полное имя : C:VIDEOTransformers. Age Of Extinction (2014) HDTVRip 1080p [трейлер].mp4
Формат : MPEG-4
Профиль формата : Base Media
Идентификатор кодека : isom
Размер файла : 219 Мбайт
Продолжительность : 2 м. 31 с.
Режим общего битрейта : Переменный
Общий поток : 12,1 Мбит/сек
Программа кодирования : Lavf53.18.0
Видео
Идентификатор : 1
Формат : AVC
Формат/Информация : Advanced Video Codec
Профиль формата : High@L4.0
Параметр CABAC формата : Да
Параметр ReFrames формата : 4 кадра
Идентификатор кодека : avc1
Идентификатор кодека/Информация : Advanced Video Coding
Продолжительность : 2 м. 31 с.
Битрейт : 12,0 Мбит/сек
Ширина : 1920 пикселей
Высота : 1080 пикселей
Соотношение сторон : 16:9
Режим частоты кадров : Постоянный
Частота кадров : 29,970 кадров/сек
Цветовое пространство : YUV
Субдискретизация насыщенности : 4:2:0
Битовая глубина : 8 бит
Тип развёртки : Прогрессивная
Бит/(Пиксели*Кадры) : 0.193
Размер потока : 216 Мбайт (99%)
Библиотека кодирования : x264 core 119
Настройки программы : cabac=1 / ref=1 / deblock=1:0:0 / analyse=0x3:0x3 / me=dia / subme=1 / psy=1 / psy_rd=1.00:0.00 / mixed_ref=0 / me_range=16 / chroma_me=1 / trellis=0 / 8x8dct=1 / cqm=0 / deadzone=21,11 / fast_pskip=1 / chroma_qp_offset=0 / threads=4 / sliced_threads=0 / nr=0 / decimate=1 / interlaced=0 / bluray_compat=0 / constrained_intra=0 / bframes=3 / b_pyramid=2 / b_adapt=1 / b_bias=0 / direct=1 / weightb=1 / open_gop=0 / weightp=1 / keyint=250 / keyint_min=25 / scenecut=40 / intra_refresh=0 / rc=abr / mbtree=0 / bitrate=12000 / ratetol=1.0 / qcomp=0.60 / qpmin=0 / qpmax=69 / qpstep=4 / ip_ratio=1.40 / pb_ratio=1.30 / aq=1:1.00
Аудио
Идентификатор : 2
Формат : AAC
Формат/Информация : Advanced Audio Codec
Профиль формата : LC
Идентификатор кодека : 40
Продолжительность : 2 м. 31 с.
Вид битрейта : Переменный
Битрейт : 150 Кбит/сек
Максимальный битрейт : 320 Кбит/сек
Каналы : 2 канала
Расположение каналов : Front: L R
Частота : 44,1 КГц
Метод сжатия : С потерями
Размер потока : 2,70 Мбайт (1%)
-Скриншоты:
-

_________________
Показать сообщения:    

Текущее время: Сегодня 16:46

Часовой пояс: GMT



Вы не можете начинать темы
Вы не можете отвечать на сообщения
Вы не можете редактировать свои сообщения
Вы не можете удалять свои сообщения
Вы не можете голосовать в опросах
Вы не можете прикреплять файлы к сообщениям
Вы не можете скачивать файлы