Ивановский Торрент трекер
Яндекс.Погода
 

[Цитировать]
HUNTER

| Все релизы мультфильма || BDRip 720p, 3.02 GB |-Трансформеры Прайм: Охотники на чудовищ. Восстание Предаконов / Transformers Prime Beast Hunters: Predacons Rising-
Страна: США
Жанр: мультфильм, фантастика, боевик, семейный
Продолжительность: 01:05:50
Год выпуска: 2013
Перевод: Профессиональный (дублированный) по заказу ЗАО "Первый канал Всемирная сеть"
Субтитры: есть-Режиссёр: Винтон Хёк, Скутер Тидвелл, Тодд Ватерман / Vinton Heuck, Scooter Tidwell, Todd Waterman
Роли озвучивали: Питер Каллен, Фрэнк Уэлкер, Стивен Блум, Джеффри Комбс, Уилл Фридел, Джеймс Хоран, Майкл Айронсайд, Питер Менса, Сумали Монтано, Джон Ноубл...
Роли дублировали: Александр Коврижных, Диомид Виноградов, Антон Савенков, Наталья Грачева, Владимир Антоник и др.- | | -Описание: Вечно воюющие трансформеры должны объединиться, чтобы противостоять новому врагу, способному уничтожить их родную планету. Планета Кибертрон возрождена, но миру трансформеров снова угрожает опасность. Злодей Юникрон возродился и захватил тело Мегатрона. Он намеревается отомстить автоботам и уничтожить планету трансформеров. Чтобы противостоять такому мощному врагу, трансформерам придется объединиться. Автоботы, десептиконы и предаконы плечом к плечу будут защищать родную планету Кибертрон...-Доп. информация: BDRip 720p сделан с Blu-Ray диска Transformers Prime Beast Hunters: Predacons Rising 2013 1080p Blu-ray AVC DTS-HD MA 5.1-DON.
Отдельное спасибо следующим людям:
- vlaluk за предоставленный Blu-Ray диск.
- xfiles за подготовку русской звуковой дорожки и субтитров.
-Сэмпл/Sample (43.9 MB, 1 минута)-Качество: BDRip 720p
Формат: MKV
Видео: 1280x720 (1.778:1), 23,976 fps, ~4858 kbps avg, 0.220 bit/pixel
Аудио #1: Русский, AC3, 2 ch, 48 kHz, 192 kbps - Дубляж | по заказу ЗАО "Первый канал Всемирная сеть"
Аудио #2: English, DTS / 5.1 / 48 kHz / 1509 kbps / 24bit - Original
Субтитры: Русские (полные), English (Full, SDH)
Навигация по главам: есть (8 не именованных глав)
MediaInfo / x264Log
x264Log
raw [info]: 1280x720p 1:1 @ 24000/1001 fps (cfr)x264 [info]: using SAR=1/1x264 [info]: using cpu capabilities: MMX2 SSE2Fast SSSE3 SSE4.2 AVX XOP FMA4 FMA3 LZCNT BMI1x264 [info]: profile High, level 4.1x264 [info]: frame I:630 Avg QP:12.02 size:109899 PSNR Mean Y:51.27 U:54.45 V:54.84 Avg:51.91 Global:51.11x264 [info]: frame P:27896 Avg QP:14.96 size: 44998 PSNR Mean Y:49.29 U:53.13 V:53.50 Avg:49.93 Global:49.26x264 [info]: frame B:66177 Avg QP:16.65 size: 16230 PSNR Mean Y:48.73 U:52.98 V:53.40 Avg:49.42 Global:48.54x264 [info]: consecutive B-frames: 7.2% 6.6% 17.3% 26.7% 13.0% 23.4% 2.6% 1.2% 0.4% 0.5% 0.2% 0.2% 0.6%x264 [info]: mb I I16..4: 7.2% 67.1% 25.7%x264 [info]: mb P I16..4: 2.2% 29.5% 5.1% P16..4: 20.7% 23.9% 10.0% 1.7% 0.1% skip: 6.7%x264 [info]: mb B I16..4: 0.8% 5.7% 0.7% B16..8: 27.9% 22.0% 4.2% direct: 6.1% skip:32.5% L0:42.1% L1:41.2% BI:16.7%x264 [info]: 8x8 transform intra:79.4% inter:57.1%x264 [info]: coded y,uvDC,uvAC intra: 76.1% 83.0% 58.6% inter: 22.7% 21.2% 5.7%x264 [info]: i16 v,h,dc,p: 31% 17% 10% 42%x264 [info]: i8 v,h,dc,ddl,ddr,vr,hd,vl,hu: 12% 13% 16% 7% 9% 9% 10% 10% 14%x264 [info]: i4 v,h,dc,ddl,ddr,vr,hd,vl,hu: 14% 13% 15% 7% 13% 11% 10% 8% 10%x264 [info]: i8c dc,h,v,p: 38% 30% 18% 14%x264 [info]: Weighted P-Frames: Y:5.6% UV:4.0%x264 [info]: ref P L0: 54.0% 10.7% 14.1% 6.7% 4.7% 3.5% 2.8% 1.8% 1.4% 0.3% 0.0%x264 [info]: ref B L0: 74.9% 12.4% 5.4% 2.8% 1.9% 1.4% 0.8% 0.3%x264 [info]: ref B L1: 93.8% 6.2%x264 [info]: SSIM Mean Y:0.9924502 (21.221db)x264 [info]: PSNR Mean Y:48.910 U:53.034 V:53.443 Avg:49.586 Global:48.758 kb/s:4857.98encoded 94703 frames, 7.46 fps, 4857.98 kb/s
GeneralUnique ID : 214199815775031893710881881955368766545 (0xA125624920A08FEEA6002683B60D0C51)Complete name : Transformers.Prime.Beast.Hunters.Predacons.Rising.2013.BDRip.720p.dfcbit.mkvFormat : MatroskaFormat version : Version 2File size : 3.02 GiBDuration : 1h 5mnOverall bit rate : 6 561 KbpsEncoded date : UTC 2014-06-03 15:36:25Writing application : mkvmerge v4.0.0 ('The Stars were mine') built on Jun 6 2010 16:18:42Writing library : libebml v1.0.0 + libmatroska v1.0.0
VideoID : 1Format : AVCFormat/Info : Advanced Video CodecFormat profile : High@L4.1Format settings, CABAC : YesFormat settings, ReFrames : 9 framesCodec ID : V_MPEG4/ISO/AVCDuration : 1h 5mnBit rate : 4 858 KbpsWidth : 1 280 pixelsHeight : 720 pixelsDisplay aspect ratio : 16:9Frame rate mode : ConstantFrame rate : 23.976 fpsColor space : YUVChroma subsampling : 4:2:0Bit depth : 8 bitsScan type : ProgressiveBits/(Pixel*Frame) : 0.220Stream size : 2.23 GiB (72%)Title : NTSC, 1280x720 (1.778:1), BDRip 720p - tRuAVC & Multfilmy [DFCbit]Writing library : x264 core 142 r2431kMod ac76440Encoding settings : cabac=1 / ref=9 / deblock=1:-2:-1 / analyse=0x3:0x133 / me=umh / subme=11 / psy=1 / fade_compensate=0.00 / psy_rd=0.63:0.00 / mixed_ref=1 / me_range=32 / chroma_me=1 / trellis=2 / 8x8dct=1 / cqm=0 / deadzone=21,11 / fast_pskip=0 / chroma_qp_offset=-2 / threads=12 / lookahead_threads=3 / sliced_threads=0 / nr=0 / decimate=1 / interlaced=0 / bluray_compat=0 / constrained_intra=0 / fgo=0 / bframes=12 / b_pyramid=2 / b_adapt=2 / b_bias=0 / direct=1 / weightb=1 / open_gop=0 / weightp=2 / keyint=250 / keyint_min=23 / scenecut=40 / intra_refresh=0 / rc_lookahead=70 / rc=2pass / mbtree=0 / bitrate=4858 / ratetol=1.0 / qcomp=0.81 / qpmin=0 / qpmax=69 / qpstep=4 / cplxblur=20.0 / qblur=0.5 / vbv_maxrate=50000 / vbv_bufsize=62500 / nal_hrd=none / filler=0 / ip_ratio=1.40 / pb_ratio=1.30 / aq=3:0.90Language : EnglishDefault : YesForced : NoColor primaries : BT.709Transfer characteristics : BT.709Matrix coefficients : BT.709
Audio #1ID : 2Format : AC-3Format/Info : Audio Coding 3Mode extension : CM (complete main)Format settings, Endianness : BigCodec ID : A_AC3Duration : 1h 5mnBit rate mode : ConstantBit rate : 192 KbpsChannel(s) : 2 channelsChannel positions : Front: L RSampling rate : 48.0 KHzBit depth : 16 bitsCompression mode : LossyStream size : 90.4 MiB (3%)Title : AC3, 2 ch, 48 kHz, 192 kbps - Дубляж | по заказу ЗАО "Первый канал Всемирная сеть"Language : RussianDefault : YesForced : No
Audio #2ID : 3Format : DTSFormat/Info : Digital Theater SystemsMode : 16Format settings, Endianness : BigCodec ID : A_DTSDuration : 1h 5mnBit rate mode : ConstantBit rate : 1 509 KbpsChannel(s) : 6 channelsChannel positions : Front: L C R, Side: L R, LFESampling rate : 48.0 KHzBit depth : 24 bitsCompression mode : LossyStream size : 711 MiB (23%)Title : DTS / 5.1 / 48 kHz / 1509 kbps / 24bit - OriginalLanguage : EnglishDefault : NoForced : No
Text #1ID : 4Format : UTF-8Codec ID : S_TEXT/UTF8Codec ID/Info : UTF-8 Plain TextTitle : SRT, FullLanguage : RussianDefault : NoForced : No
Text #2ID : 5Format : UTF-8Codec ID : S_TEXT/UTF8Codec ID/Info : UTF-8 Plain TextTitle : SRT, FullLanguage : EnglishDefault : NoForced : No
Text #3ID : 6Format : UTF-8Codec ID : S_TEXT/UTF8Codec ID/Info : UTF-8 Plain TextTitle : SRT, (SDH)Language : EnglishDefault : NoForced : No
Menu00:00:00.000 : en:Chapter 100:12:15.944 : en:Chapter 200:20:31.439 : en:Chapter 300:30:20.652 : en:Chapter 400:41:22.313 : en:Chapter 500:50:52.967 : en:Chapter 600:59:10.422 : en:Chapter 701:02:23.823 : en:Chapter 8
Скриншоты
Скриншот с названием мультфильма
--BDRip 720p


Source Blu-Ray

Релиз от групп | and | -Данный релиз не будет воспроизводиться на бытовых плеерах не поддерживающих MKV и H.264FAQ по просмотру AVC
  • Смогу ли я запустить AVC фильм на своём компьютере?
  • Сэмпл из раздачи не воспроизводится или отсутствует звук/изображение. Что делать?
  • Что такое H.264/AVC и зачем он нужен?
  • Что за дурацкий формат .MKV?
  • Почему MKV? Чем AVI хуже?
  • Не могу переключить/включить/выключить аудио/видео дорожки и/или субтитры. Что делать?
  • Будут ли фильмы в таком формате проигрываться на бытовых плеерах без компьютера?
  • Проигрываю фильм, а картинка очень сильно отличается от скринов. Что не так?
  • Можно ли сконвертировать AVC в DVD?
  • Почему в характеристиках видеопотока указано два разрешения и что такое анаморфное разрешение?
    Обсуждение релизов в AVC формате || Свежие AVC рипы
  • 0 человек читают эту тему: 0 пользователей, 0 скрытых пользователей, 0 гостей

    Показать сообщения:    

    Текущее время: 23-Авг 14:52

    Часовой пояс: UTC - 1


    Вы не можете начинать темы
    Вы не можете отвечать на сообщения
    Вы не можете редактировать свои сообщения
    Вы не можете удалять свои сообщения
    Вы не можете голосовать в опросах
    Вы не можете прикреплять файлы к сообщениям
    Вы не можете скачивать файлы

    !ВНИМАНИЕ!
    Сайт не предоставляет электронные версии произведений, а занимается лишь коллекционированием и каталогизацией ссылок, присылаемых и публикуемых на форуме нашими читателями. Если вы являетесь правообладателем какого-либо представленного материала и не желаете, чтобы ссылка на него находилась в нашем каталоге, свяжитесь с нами, и мы незамедлительно удалим ее. Файлы для обмена на трекере предоставлены пользователями сайта, и администрация не несет ответственности за их содержание. Просьба не заливать файлы, защищенные авторскими правами, а также файлы нелегального содержания!