Ивановский Торрент трекер
Яндекс.Погода
 

[Цитировать]
HUNTER

| Все релизы мультфильма || BDRip 1080p, 5.42 GB |-Трансформеры Прайм: Охотники на чудовищ. Восстание Предаконов / Transformers Prime Beast Hunters: Predacons Rising- Страна: США
Жанр: мультфильм, фантастика, боевик, семейный
Продолжительность: 01:05:50
Год выпуска: 2013
Перевод: Профессиональный (дублированный) по заказу ЗАО "Первый канал Всемирная сеть"
Субтитры: есть-Режиссёр: Винтон Хёк, Скутер Тидвелл, Тодд Ватерман / Vinton Heuck, Scooter Tidwell, Todd Waterman
Роли озвучивали: Питер Каллен, Фрэнк Уэлкер, Стивен Блум, Джеффри Комбс, Уилл Фридел, Джеймс Хоран, Майкл Айронсайд, Питер Менса, Сумали Монтано, Джон Ноубл...
Роли дублировали: Александр Коврижных, Диомид Виноградов, Антон Савенков, Наталья Грачева, Владимир Антоник и др.- | | -Описание: Вечно воюющие трансформеры должны объединиться, чтобы противостоять новому врагу, способному уничтожить их родную планету. Планета Кибертрон возрождена, но миру трансформеров снова угрожает опасность. Злодей Юникрон возродился и захватил тело Мегатрона. Он намеревается отомстить автоботам и уничтожить планету трансформеров. Чтобы противостоять такому мощному врагу, трансформерам придется объединиться. Автоботы, десептиконы и предаконы плечом к плечу будут защищать родную планету Кибертрон...-Доп. информация: BDRip 1080p сделан с Blu-Ray диска Transformers Prime Beast Hunters: Predacons Rising 2013 1080p Blu-ray AVC DTS-HD MA 5.1-DON.
Отдельное спасибо следующим людям:
- vlaluk за предоставленный Blu-Ray диск.
- xfiles за подготовку русской звуковой дорожки и субтитров.
-Сэмпл/Sample (83.1 MB, 1 минута)-Качество: BDRip 1080p
Формат: MKV
Видео: 1920x1080 (1.778:1), 23,976 fps, ~10089 kbps avg, 0.203 bit/pixel
Аудио #1: Русский, AC3, 2 ch, 48 kHz, 192 kbps - Дубляж | по заказу ЗАО "Первый канал Всемирная сеть"
Аудио #2: English, DTS / 5.1 / 48 kHz / 1509 kbps / 24bit - Original
Субтитры: Русские (полные), English (Full, SDH)
Навигация по главам: есть (8 не именованных глав)
MediaInfo / x264Log
x264Log
raw [info]: 1920x1080p 1:1 @ 24000/1001 fps (cfr)x264 [info]: using SAR=1/1x264 [info]: using cpu capabilities: MMX2 SSE2Fast SSSE3 SSE4.2 AVX XOP FMA4 FMA3 LZCNT BMI1x264 [info]: profile High, level 4.1x264 [info]: frame I:601 Avg QP:11.92 size:171918 PSNR Mean Y:53.29 U:56.99 V:57.46 Avg:54.03 Global:53.03x264 [info]: frame P:30793 Avg QP:14.84 size: 86126 PSNR Mean Y:51.19 U:56.38 V:56.76 Avg:51.92 Global:51.06x264 [info]: frame B:63309 Avg QP:16.09 size: 35166 PSNR Mean Y:49.97 U:54.06 V:54.49 Avg:50.76 Global:49.82x264 [info]: consecutive B-frames: 10.5% 9.1% 18.4% 17.9% 9.2% 31.2% 1.9% 0.3% 0.2% 0.3% 0.2% 0.3% 0.5%x264 [info]: mb I I16..4: 13.0% 55.4% 31.6%x264 [info]: mb P I16..4: 5.0% 39.5% 12.2% P16..4: 15.5% 13.7% 4.7% 0.5% 0.0% skip: 9.0%x264 [info]: mb B I16..4: 2.6% 11.6% 2.7% B16..8: 28.8% 15.0% 2.9% direct: 6.8% skip:29.8% L0:42.0% L1:43.7% BI:14.3%x264 [info]: 8x8 transform intra:69.0% inter:64.0%x264 [info]: coded y,uvDC,uvAC intra: 68.8% 80.5% 52.7% inter: 21.7% 21.6% 4.3%x264 [info]: i16 v,h,dc,p: 28% 21% 19% 32%x264 [info]: i8 v,h,dc,ddl,ddr,vr,hd,vl,hu: 19% 18% 28% 5% 5% 5% 5% 6% 8%x264 [info]: i4 v,h,dc,ddl,ddr,vr,hd,vl,hu: 30% 19% 23% 4% 6% 6% 5% 4% 4%x264 [info]: i8c dc,h,v,p: 36% 34% 19% 11%x264 [info]: Weighted P-Frames: Y:4.3% UV:3.1%x264 [info]: ref P L0: 63.8% 11.7% 16.1% 6.8% 1.5% 0.0%x264 [info]: ref B L0: 88.3% 9.7% 2.0%x264 [info]: ref B L1: 93.5% 6.5%x264 [info]: SSIM Mean Y:0.9938314 (22.098db)x264 [info]: PSNR Mean Y:50.388 U:54.830 V:55.244 Avg:51.156 Global:50.199 kb/s:10089.84encoded 94703 frames, 4.78 fps, 10089.84 kb/s
GeneralUnique ID : 239413228498405532263555032007569338793 (0xB41D4F827B7111FEA61D9E8D336071A9)Complete name : Transformers.Prime.Beast.Hunters.Predacons.Rising.2013.BDRip.1080p.dfcbit.mkvFormat : MatroskaFormat version : Version 2File size : 5.42 GiBDuration : 1h 5mnOverall bit rate : 11.8 MbpsEncoded date : UTC 2014-06-02 16:49:24Writing application : mkvmerge v4.0.0 ('The Stars were mine') built on Jun 6 2010 16:18:42Writing library : libebml v1.0.0 + libmatroska v1.0.0
VideoID : 1Format : AVCFormat/Info : Advanced Video CodecFormat profile : High@L4.1Format settings, CABAC : YesFormat settings, ReFrames : 4 framesCodec ID : V_MPEG4/ISO/AVCDuration : 1h 5mnBit rate : 10.1 MbpsWidth : 1 920 pixelsHeight : 1 080 pixelsDisplay aspect ratio : 16:9Frame rate mode : ConstantFrame rate : 23.976 fpsColor space : YUVChroma subsampling : 4:2:0Bit depth : 8 bitsScan type : ProgressiveBits/(Pixel*Frame) : 0.203Stream size : 4.64 GiB (84%)Title : NTSC, 1920x1080 (1.778:1), BDRip 1080p - tRuAVC & Multfilmy [DFCbit]Writing library : x264 core 142 r2431kMod ac76440Encoding settings : cabac=1 / ref=4 / deblock=1:-2:-1 / analyse=0x3:0x133 / me=umh / subme=11 / psy=1 / fade_compensate=0.00 / psy_rd=0.63:0.00 / mixed_ref=1 / me_range=32 / chroma_me=1 / trellis=2 / 8x8dct=1 / cqm=0 / deadzone=21,11 / fast_pskip=0 / chroma_qp_offset=-2 / threads=12 / lookahead_threads=3 / sliced_threads=0 / nr=0 / decimate=1 / interlaced=0 / bluray_compat=0 / constrained_intra=0 / fgo=0 / bframes=12 / b_pyramid=2 / b_adapt=2 / b_bias=0 / direct=1 / weightb=1 / open_gop=0 / weightp=2 / keyint=250 / keyint_min=23 / scenecut=40 / intra_refresh=0 / rc_lookahead=70 / rc=2pass / mbtree=0 / bitrate=10089 / ratetol=1.0 / qcomp=0.81 / qpmin=0 / qpmax=69 / qpstep=4 / cplxblur=20.0 / qblur=0.5 / vbv_maxrate=50000 / vbv_bufsize=62500 / nal_hrd=none / filler=0 / ip_ratio=1.40 / pb_ratio=1.30 / aq=3:0.90Language : EnglishDefault : YesForced : NoColor primaries : BT.709Transfer characteristics : BT.709Matrix coefficients : BT.709
Audio #1ID : 2Format : AC-3Format/Info : Audio Coding 3Mode extension : CM (complete main)Format settings, Endianness : BigCodec ID : A_AC3Duration : 1h 5mnBit rate mode : ConstantBit rate : 192 KbpsChannel(s) : 2 channelsChannel positions : Front: L RSampling rate : 48.0 KHzBit depth : 16 bitsCompression mode : LossyStream size : 90.4 MiB (2%)Title : AC3, 2 ch, 48 kHz, 192 kbps - Дубляж | по заказу ЗАО "Первый канал Всемирная сеть"Language : RussianDefault : YesForced : No
Audio #2ID : 3Format : DTSFormat/Info : Digital Theater SystemsMode : 16Format settings, Endianness : BigCodec ID : A_DTSDuration : 1h 5mnBit rate mode : ConstantBit rate : 1 509 KbpsChannel(s) : 6 channelsChannel positions : Front: L C R, Side: L R, LFESampling rate : 48.0 KHzBit depth : 24 bitsCompression mode : LossyStream size : 711 MiB (13%)Title : DTS / 5.1 / 48 kHz / 1509 kbps / 24bit - OriginalLanguage : EnglishDefault : NoForced : No
Text #1ID : 4Format : UTF-8Codec ID : S_TEXT/UTF8Codec ID/Info : UTF-8 Plain TextTitle : SRT, FullLanguage : RussianDefault : NoForced : No
Text #2ID : 5Format : UTF-8Codec ID : S_TEXT/UTF8Codec ID/Info : UTF-8 Plain TextTitle : SRT, FullLanguage : EnglishDefault : NoForced : No
Text #3ID : 6Format : UTF-8Codec ID : S_TEXT/UTF8Codec ID/Info : UTF-8 Plain TextTitle : SRT, (SDH)Language : EnglishDefault : NoForced : No
Menu00:00:00.000 : en:Chapter 100:12:15.944 : en:Chapter 200:20:31.439 : en:Chapter 300:30:20.652 : en:Chapter 400:41:22.313 : en:Chapter 500:50:52.967 : en:Chapter 600:59:10.422 : en:Chapter 701:02:23.823 : en:Chapter 8
Скриншоты
Скриншот с названием мультфильма
--BDRip 1080p


Source Blu-Ray

Релиз от групп | and | -Данный релиз не будет воспроизводиться на бытовых плеерах не поддерживающих MKV и H.264FAQ по просмотру AVC
Показать сообщения:    

Текущее время: 24-Сен 07:38

Часовой пояс: UTC - 1


Вы не можете начинать темы
Вы не можете отвечать на сообщения
Вы не можете редактировать свои сообщения
Вы не можете удалять свои сообщения
Вы не можете голосовать в опросах
Вы не можете прикреплять файлы к сообщениям
Вы не можете скачивать файлы

!ВНИМАНИЕ!
Сайт не предоставляет электронные версии произведений, а занимается лишь коллекционированием и каталогизацией ссылок, присылаемых и публикуемых на форуме нашими читателями. Если вы являетесь правообладателем какого-либо представленного материала и не желаете, чтобы ссылка на него находилась в нашем каталоге, свяжитесь с нами, и мы незамедлительно удалим ее. Файлы для обмена на трекере предоставлены пользователями сайта, и администрация не несет ответственности за их содержание. Просьба не заливать файлы, защищенные авторскими правами, а также файлы нелегального содержания!