Ивановский Торрент трекер
Яндекс.Погода
 

[Цитировать]
HUNTER

Трансформеры Прайм: Охотники на чудовищ. Восстание предаконов / Transformers Prime Beast Hunters: Predacons Rising- Страна: США
Жанр: мультфильм, фантастика, боевик, семейный
Продолжительность: 01:05:50
Год выпуска: 2013
Перевод: Профессиональный (дублированный) по заказу ЗАО "Первый канал Всемирная сеть"
Русские субтитры: есть-Режиссёры: Винтон Хёк, Скутер Тидвелл, Тодд Ватерман / Vinton Heuck, Scooter Tidwell, Todd Waterman
Роли озвучивали: Питер Каллен, Фрэнк Уэлкер, Стивен Блум, Джеффри Комбс, Уилл Фридел, Джеймс Хоран, Майкл Айронсайд, Питер Менса, Сумали Монтано, Джон Ноубл
Роли дублировали: Александр Коврижных, Диомид Виноградов, Антон Савенков, Наталья Грачева, Владимир Антоник- | Релиз: -Описание: Вечно воюющие трансформеры должны объединиться, чтобы противостоять новому врагу, способному уничтожить их родную планету. Планета Кибертрон возрождена, но миру трансформеров снова угрожает опасность. Злодей Юникрон возродился и захватил тело Мегатрона. Он намеревается отомстить автоботам и уничтожить планету трансформеров. Чтобы противостоять такому мощному врагу, трансформерам придется объединиться. Автоботы, десептиконы и предаконы плечом к плечу будут защищать родную планету Кибертрон.-Семпл: скачать-Качество: BDRip 720p [AXED / PublicHD]
Формат: MKV
Видео: 1280x720 (16:9), 23.976 fps, AVC, ~4357 Kbps, 0.197 bits/pixel
Аудио 1: Русский, 48.0 KHz, AC3, 2 ch, 192 Kbps
Аудио 2: English, 48.0 KHz, DTS, 6 ch, 1510 Kbps
Субтитры: Русские, English
MediaInfo
GeneralUnique ID : 182037156847411820871813914415183917512 (0x88F314C55A25AFAA8FAB597ADB5771C8)Complete name : Transformers.Prime.Beast.Hunters-Predacons.Rising.2013.720p.BluRay.DTS-5.1.x264-AXED.Rus.Eng.mkvFormat : MatroskaFormat version : Version 4 / Version 2File size : 2.79 GiBDuration : 1h 5mnOverall bit rate : 6 060 KbpsEncoded date : UTC 2014-05-25 13:11:48Writing application : mkvmerge v6.9.1 ('Blue Panther') 64bit built on Apr 18 2014 18:23:38Writing library : libebml v1.3.0 + libmatroska v1.4.1
VideoID : 1Format : AVCFormat/Info : Advanced Video CodecFormat profile : High@L4.1Format settings, CABAC : YesFormat settings, ReFrames : 9 framesCodec ID : V_MPEG4/ISO/AVCDuration : 1h 5mnBit rate : 4 357 KbpsWidth : 1 280 pixelsHeight : 720 pixelsDisplay aspect ratio : 16:9Frame rate mode : ConstantFrame rate : 23.976 fpsColor space : YUVChroma subsampling : 4:2:0Bit depth : 8 bitsScan type : ProgressiveBits/(Pixel*Frame) : 0.197Stream size : 1.95 GiB (70%)Writing library : x264 core 68 r1195bm 5d75a9bEncoding settings : cabac=1 / ref=9 / deblock=1:-1:-1 / analyse=0x3:0x113 / me=umh / subme=7 / psy_rd=0.0:2.0 / mixed_ref=1 / me_range=16 / chroma_me=1 / trellis=2 / 8x8dct=1 / cqm=0 / deadzone=21,11 / chroma_qp_offset=-2 / threads=1 / thread_queue=1 / nr=0 / decimate=1 / mbaff=0 / bframes=6 / b_pyramid=0 / b_adapt=1 / b_bias=0 / direct=1 / wpredb=1 / keyint=250 / keyint_min=25 / scenecut=40 / rc=2pass / bitrate=4357 / ratetol=1.0 / qcomp=0.60 / qpmin=10 / qpmax=51 / qpstep=4 / cplxblur=20.0 / qblur=0.5 / ip_ratio=1.40 / pb_ratio=1.30 / aq=2:1.00Language : EnglishDefault : YesForced : No
Audio #1ID : 2Format : AC-3Format/Info : Audio Coding 3Mode extension : CM (complete main)Format settings, Endianness : BigCodec ID : A_AC3Duration : 1h 5mnBit rate mode : ConstantBit rate : 192 KbpsChannel(s) : 2 channelsChannel positions : Front: L RSampling rate : 48.0 KHzBit depth : 16 bitsCompression mode : LossyStream size : 90.4 MiB (3%)Language : RussianDefault : YesForced : No
Audio #2ID : 3Format : DTSFormat/Info : Digital Theater SystemsMode : 16Format settings, Endianness : BigCodec ID : A_DTSDuration : 1h 5mnBit rate mode : ConstantBit rate : 1 509 KbpsChannel(s) : 6 channelsChannel positions : Front: L C R, Side: L R, LFESampling rate : 48.0 KHzBit depth : 24 bitsCompression mode : LossyStream size : 711 MiB (25%)Language : EnglishDefault : NoForced : No
Text #1ID : 4Format : UTF-8Codec ID : S_TEXT/UTF8Codec ID/Info : UTF-8 Plain TextLanguage : RussianDefault : NoForced : No
Text #2ID : 5Format : UTF-8Codec ID : S_TEXT/UTF8Codec ID/Info : UTF-8 Plain TextLanguage : EnglishDefault : NoForced : No
Скриншоты


Показать сообщения:    

Текущее время: 17-Дек 19:47

Часовой пояс: UTC ± 0


Вы не можете начинать темы
Вы не можете отвечать на сообщения
Вы не можете редактировать свои сообщения
Вы не можете удалять свои сообщения
Вы не можете голосовать в опросах
Вы не можете прикреплять файлы к сообщениям
Вы не можете скачивать файлы

!ВНИМАНИЕ!
Сайт не предоставляет электронные версии произведений, а занимается лишь коллекционированием и каталогизацией ссылок, присылаемых и публикуемых на форуме нашими читателями. Если вы являетесь правообладателем какого-либо представленного материала и не желаете, чтобы ссылка на него находилась в нашем каталоге, свяжитесь с нами, и мы незамедлительно удалим ее. Файлы для обмена на трекере предоставлены пользователями сайта, и администрация не несет ответственности за их содержание. Просьба не заливать файлы, защищенные авторскими правами, а также файлы нелегального содержания!