Транзит / Transit (Кристиан Де Ла Кортина / Cristian De La Cortina) [2008, США, Канада, Боевик, криминал, драма, DVD9 (Custom)] DVO + Sub Eng + Original Fre :: Ивановский Торрент трекер
Важное объявление!
У Нас Все раздачи мультитрекерные, при нуле пиров в релизах, можете смело вставать на закачку!
Статистика раздачи
Размер:     |    Зарегистрирован:     |    Скачан:     |   
Нет
 
     
 
 
Автор Сообщение

HUNTER

Стаж:
4 года 11 месяцев
Сообщений:
66054

Репутация: 101

[+] [-]
Вне форума [Профиль] [ЛС]

Транзит / Transit
Страна: США, Канада
Жанр: Боевик, криминал, драма
Год выпуска: 2008
Продолжительность: 01:39:55
Перевод: Профессиональный (двухголосый закадровый)
Cубтитры: английские
Оригинальная аудиодорожка: французский
Режиссер: Кристиан Де Ла Кортина / Cristian De La Cortina
В ролях: Кристиан Де Ла Кортина, Люк Морриссет, Джули Ду Пейдж, Deano Clavet
Описание: Сантьяго работает на мафию, которая под прикрытием крупной транспортной компании занимается нелегальной перегонкой дорогих автомобилей. Сантьяго становится руководителем отдела и налаживает свой бизнес, но ненадолго. Узнав о крупной поставке наркотиков, полиция выходит на фирму Сантьяго…
Доп. информация: Русская звуковая дорожка взята с этой раздачи http://rutracker.org/forum/viewtopic.php?t=3009755 автору большое спасибо.
За синхронизацию и даунмикс огромное спасибо Нордер
При пересборе двд были использованы программы:
PgcDemux - разделение компонентов диска на файлы
Muxman - мультиплексирование и авторинг DVD
VobBlanker - реавторинг DVD

Скрин завершения проекта

Бонусы: Интервью, коментарии, клип. удалёнын сцены
Сэмпл: http://sendfile.su/1094460
Тип релиза: DVD9 (Custom)
Контейнер: DVD-Video
Видео: NTSC 4:3 (720x480) VBR
Аудио: Russian (Dolby AC3, 192 Кбит/сек, 2 ch)
Аудио 2: Francais (Dolby AC3, 448 Кбит/сек, 6 ch)
Аудио 3: Francais (Dolby AC3, 192 Кбит/сек, 2 ch)
Аудио 4: Francais (Dolby AC3, 448 Кбит/сек. 6 ch) коментарии
Формат субтитров: softsub (SRT)

DVDInfo

Size: 7.01 Gb ( 7 351 774 KBytes ) - DVD-9
Enabled regions: 1, 2, 3, 4, 5, 6, 7, 8
VTS_01 :
Play Length: 00:00:18
Video: NTSC 16:9 (720x480) VBR, Auto Pan&Scan
VTS_02 :
Play Length: 00:00:10
Video: NTSC 16:9 (720x480) VBR, Auto Pan&Scan
Audio:
Not specified (Dolby AC3, 2 ch)
VTS_03 :
Play Length: 00:00:06
Video: NTSC 16:9 (720x480) VBR, Auto Pan&Scan
Audio:
Not specified (Dolby AC3, 2 ch)
VTS_04 :
Play Length: 00:01:17
Video: NTSC 16:9 (720x480) VBR, Auto Pan&Scan
Audio:
Francais (Dolby AC3, 2 ch)
VTS_05 :
Play Length: 00:00:06
Video: NTSC 16:9 (720x480) VBR, Auto Pan&Scan
Audio:
Not specified (Dolby AC3, 2 ch)
VTS_06 :
Play Length: 00:02:22
Video: NTSC 4:3 (720x480) VBR
Audio:
English (Dolby AC3, 2 ch)
VTS_07 :
Play Length: 00:01:48
Video: NTSC 16:9 (720x480) VBR, Auto Pan&Scan
Audio:
Francais (Dolby AC3, 2 ch)
VTS_08 :
Play Length: 00:00:06
Video: NTSC 16:9 (720x480) VBR, Auto Pan&Scan
Audio:
Not specified (Dolby AC3, 2 ch)
VTS_09 :
Play Length: 00:02:12
Video: NTSC 16:9 (720x480) VBR, Auto Pan&Scan
Audio:
English (Dolby AC3, 2 ch)
VTS_10 :
Play Length: 00:00:06
Video: NTSC 16:9 (720x480) VBR, Auto Pan&Scan
Audio:
Not specified (Dolby AC3, 2 ch)
VTS_11 :
Play Length: 00:02:13
Video: NTSC 4:3 (720x480) VBR
Audio:
English (Dolby AC3, 2 ch)
VTS_12 :
Play Length: 01:39:55
Video: NTSC 4:3 (720x480) VBR
Audio:
Russian (Dolby AC3, 2 ch)
Francais (Dolby AC3, 6 ch)
Francais (Dolby AC3, 2 ch)
Francais (Dolby AC3, 6 ch)
Subtitles:
English
English
VTS_13 :
Play Length: 00:00:07
Video: NTSC 4:3 (720x480) VBR
VTS_14 :
Play Length: 00:01:09
Video: NTSC 16:9 (720x480) VBR, Auto Pan&Scan
Audio:
Francais (Dolby AC3, 2 ch)
VTS_15 :
Play Length: 00:07:57
Video: NTSC 16:9 (720x480) VBR, Auto Pan&Scan
Audio:
Francais (Dolby AC3, 2 ch)
VTS_16 :
Play Length: 00:04:04
Video: NTSC 16:9 (720x480) VBR, Auto Pan&Scan
Audio:
Francais (Dolby AC3, 2 ch)
VTS_17 :
Play Length: 00:10:56
Video: NTSC 16:9 (720x480) VBR, Auto Pan&Scan
Audio:
Francais (Dolby AC3, 2 ch)
VTS_18 :
Play Length: 00:01:59
Video: NTSC 4:3 (720x480) VBR
Audio:
Francais (Dolby AC3, 2 ch)
VTS_19 :
Play Length: 00:01:53
Video: NTSC 4:3 (720x480) VBR
Audio:
Francais (Dolby AC3, 2 ch)
VTS_20 :
Play Length: 00:02:35
Video: NTSC 4:3 (720x480) VBR
Audio:
Francais (Dolby AC3, 2 ch)
VTS_21 :
Play Length: 00:01:31
Video: NTSC 4:3 (720x480) VBR
Audio:
English (Dolby AC3, 2 ch)
VTS_22 :
Play Length: 00:00:06
Video: NTSC 16:9 (720x480) VBR, Auto Pan&Scan
Audio:
Not specified (Dolby AC3, 2 ch)
Menu Video:
NTSC 16:9 (720x480) VBR
Auto Letterboxed
Menu English Language Unit :
Root Menu

MediaInfo

Общее
Полное имя : M:\Transit_2008\VIDEO_TS\VTS_12_1.VOB
Формат : MPEG-PS
Размер файла : 1024 Мбайт
Продолжительность : 19 м.
Режим общего битрейта : Переменный
Общий поток : 7279 Кбит/сек
Видео
Идентификатор : 224 (0xE0)
Формат : MPEG Video
Версия формата : Version 2
Профиль формата : Main@Main
Параметр BVOP формата : Да
Параметр матрицы формата : Выборочная
Продолжительность : 19 м.
Вид битрейта : Переменный
Битрейт : 5854 Кбит/сек
Максимальный битрейт : 8000 Кбит/сек
Ширина : 720 пикселей
Высота : 480 пикселей
Соотношение сторон : 4:3
Частота кадров : 29,970 кадров/сек
Стандарт вещания : NTSC
Цветовое пространство : YUV
Субдискретизация насыщенности : 4:2:0
Битовая глубина : 8 бит
Метод сжатия : С потерями
Бит/(Пиксели*Кадры) : 0.565
Размер потока : 824 Мбайт (80%)
Аудио #1
Идентификатор : 189 (0xBD)-128 (0x80)
Формат : AC-3
Формат/Информация : Audio Coding 3
Расширение режима : CM (complete main)
Параметр Endianness формата : Big
Режим смешивания : DVD-Video
Продолжительность : 19 м.
Вид битрейта : Постоянный
Битрейт : 192 Кбит/сек
Каналы : 2 канала
Расположение каналов : Front: L R
Частота : 48,0 КГц
Битовая глубина : 16 бит
Метод сжатия : С потерями
Задержка видео : -66 мс.
Размер потока : 27,0 Мбайт (3%)
Аудио #2
Идентификатор : 189 (0xBD)-129 (0x81)
Формат : AC-3
Формат/Информация : Audio Coding 3
Расширение режима : CM (complete main)
Параметр Endianness формата : Big
Режим смешивания : DVD-Video
Продолжительность : 19 м.
Вид битрейта : Постоянный
Битрейт : 448 Кбит/сек
Каналы : 6 каналов
Расположение каналов : Front: L C R, Side: L R, LFE
Частота : 48,0 КГц
Битовая глубина : 16 бит
Метод сжатия : С потерями
Задержка видео : -66 мс.
Размер потока : 63,0 Мбайт (6%)
Аудио #3
Идентификатор : 189 (0xBD)-130 (0x82)
Формат : AC-3
Формат/Информация : Audio Coding 3
Профиль формата : Dolby Digital
Расширение режима : CM (complete main)
Параметр Endianness формата : Big
Режим смешивания : DVD-Video
Продолжительность : 19 м.
Вид битрейта : Постоянный
Битрейт : 192 Кбит/сек
Каналы : 2 канала
Расположение каналов : Front: L R
Частота : 48,0 КГц
Битовая глубина : 16 бит
Метод сжатия : С потерями
Задержка видео : -66 мс.
Размер потока : 27,0 Мбайт (3%)
Аудио #4
Идентификатор : 189 (0xBD)-131 (0x83)
Формат : AC-3
Формат/Информация : Audio Coding 3
Расширение режима : CM (complete main)
Параметр Endianness формата : Big
Режим смешивания : DVD-Video
Продолжительность : 19 м.
Вид битрейта : Постоянный
Битрейт : 448 Кбит/сек
Каналы : 6 каналов
Расположение каналов : Front: L C R, Side: L R, LFE
Частота : 48,0 КГц
Битовая глубина : 16 бит
Метод сжатия : С потерями
Задержка видео : -66 мс.
Размер потока : 63,0 Мбайт (6%)
Текст #1
Идентификатор : 189 (0xBD)-32 (0x20)
Формат : RLE
Формат/Информация : Run-length encoding
Режим смешивания : DVD-Video
Продолжительность : 19 м.
Задержка видео : 8 с. 809 мс.
Текст #2
Идентификатор : 224 (0xE0)-CC3
Формат : EIA-608
Режим смешивания : DVD-Video
Режим смешивания, доп. информация : Muxed in Video #1
Вид битрейта : Постоянный
Размер потока : 0,00 байт (0%)
Меню

Скриншоты меню

Скриншоты


_________________
Показать сообщения:    

Текущее время: Сегодня 09:07

Часовой пояс: GMT



Вы не можете начинать темы
Вы не можете отвечать на сообщения
Вы не можете редактировать свои сообщения
Вы не можете удалять свои сообщения
Вы не можете голосовать в опросах
Вы не можете прикреплять файлы к сообщениям
Вы не можете скачивать файлы