Важное объявление!
У Нас Все раздачи мультитрекерные, при нуле пиров в релизах, можете смело вставать на закачку!
 
Автор Сообщение

HUNTER

Стаж:
4 года 8 месяцев
Сообщений:
62116

Репутация: 101

[+] [-]
Вне форума [Профиль] [ЛС]

То, что ты делаешь! / That Thing You Do!
Страна: США
Студия: Twentieth Century Fox Film Corporation, Clavius Base, Clinica Estetico
Жанр: Комедия, Драма, Музыкальный
Год выпуска: 1996
Продолжительность: 02:27:33
Перевод: Авторский (одноголосый закадровый) |Ю.Сербин|
Оригинальная аудиодорожка: английский
Cубтитры: английские
Режиссер: Том Хэнкс / Tom Hanks
В ролях: Том Эверетт Скотт, Лив Тайлер, Джонатон Шаех, Стив Зан, Итэн Эмбри, Том Хэнкс, Шарлиз Терон, Обба Бабатунде, Джованни Рибизи, Крис Элли, Алекс Рокко, Билл Коббс, Питер Сколари, Рита Уилсон, Крис Айзек (Tom Everett Scott, Liv Tyler, Johnathon Schaech, Steve Zahn, Ethan Embry, Tom Hanks, Charlize Theron, Obba Babatunde, Giovanni Ribisi, Chris Ellis, Alex Rocco, Bill Cobbs, Peter Scolari, Rita Wilson, Chris Isaak)
Описание: 60-e годы прошлого века. Молодой продавец магазина бытовой техники соглашается подменить на местном конкурсе молодых талантов получившего травму барабанщика группы. Это событие обернулось космическим взлетом новых звезд. Быстрее, чем вы успеете произнести "то, что ты делаешь", менеджер студии грамзаписи записывает музыку ребят и в одночасье делает их знаменитыми, ибо их композиция стремительно поднялась на первую строчку хит-парадов.
Дополнительная информация: Расширенная версия 02:27:33 час/ Простая версия 01:47:48 час
Сэмпл: http://multi-up.com/968547
Тип релиза: BDRip 720p
Контейнер: MKV
Видео: AVC, 1280х720, (16:9), 7900 Кбит/сек, 23,976 кадра/сек, 0.358 Бит/(Пиксели*Кадры)
Аудио 1: Russian, DTS, 6 каналов, 48,0 КГц, 1509 Кбит/сек
Аудио 2: English, DTS, 6 каналов, 48,0 КГц, 1509 Кбит/сек

MediaInfo

Общее
Уникальный идентификатор : 199567948471017465279888988451917293628 (0x96236387BE3F4A2ABDF3F05FCD90683C)
Полное имя : То, что ты делаешь.BDrip720p.mkv
Формат : Matroska
Версия формата : Version 2
Размер файла : 11,3 Гбайт
Продолжительность : 2 ч. 27 м.
Общий поток : 10,9 Мбит/сек
Название фильма : То, что ты делаешь.BDrip720p[Releas by NIKI]
Дата кодирования : UTC 2014-04-21 18:21:01
Программа кодирования : mkvmerge v5.8.0 ('No Sleep / Pillow') built on Sep 2 2012 15:37:04
Библиотека кодирования : libebml v1.2.3 + libmatroska v1.3.0
Attachment : Yes
Видео
Идентификатор : 1
Формат : AVC
Формат/Информация : Advanced Video Codec
Профиль формата : High@L4.1
Параметр CABAC формата : Да
Параметр ReFrames формата : 5 кадров
Идентификатор кодека : V_MPEG4/ISO/AVC
Продолжительность : 2 ч. 27 м.
Битрейт : 7900 Кбит/сек
Ширина : 1280 пикселей
Высота : 720 пикселей
Соотношение сторон : 16:9
Режим частоты кадров : Постоянный
Частота кадров : 23,976 кадра/сек
Цветовое пространство : YUV
Субдискретизация насыщенности : 4:2:0
Битовая глубина : 8 бит
Тип развёртки : Прогрессивная
Бит/(Пиксели*Кадры) : 0.358
Размер потока : 7,93 Гбайт (70%)
Заголовок : То, что ты делаешь.BDrip720p [Releas by NIKI]
Библиотека кодирования : x264 core 128 r2216M 198a7ea
Настройки программы : cabac=1 / ref=6 / deblock=1:-1:-1 / analyse=0x3:0x133 / me=umh / subme=10 / psy=1 / psy_rd=1.00:0.15 / mixed_ref=1 / me_range=32 / chroma_me=1 / trellis=2 / 8x8dct=1 / cqm=0 / deadzone=21,11 / fast_pskip=1 / chroma_qp_offset=-3 / threads=4 / lookahead_threads=1 / sliced_threads=0 / nr=0 / decimate=1 / interlaced=0 / bluray_compat=0 / constrained_intra=0 / bframes=6 / b_pyramid=1 / b_adapt=2 / b_bias=0 / direct=3 / weightb=1 / open_gop=0 / weightp=2 / keyint=230 / keyint_min=23 / scenecut=40 / intra_refresh=0 / rc_lookahead=60 / rc=2pass / mbtree=1 / bitrate=7900 / ratetol=1.0 / qcomp=0.60 / qpmin=10 / qpmax=51 / qpstep=4 / cplxblur=20.0 / qblur=0.5 / ip_ratio=1.40 / aq=1:1.00
Язык : Russian
Default : Да
Forced : Нет
Аудио #1
Идентификатор : 2
Формат : DTS
Формат/Информация : Digital Theater Systems
Режим : 16
Параметр Endianness формата : Big
Идентификатор кодека : A_DTS
Продолжительность : 2 ч. 27 м.
Вид битрейта : Постоянный
Битрейт : 1509 Кбит/сек
Каналы : 6 каналов
Расположение каналов : Front: L C R, Side: L R, LFE
Частота : 48,0 КГц
Битовая глубина : 24 бит
Метод сжатия : С потерями
Размер потока : 1,56 Гбайт (14%)
Заголовок : DTS, 1509 Кбит/сек, 48,0 КГц, 6 каналов |Ю.Сербин|
Язык : Russian
Default : Да
Forced : Нет
Аудио #2
Идентификатор : 3
Формат : DTS
Формат/Информация : Digital Theater Systems
Режим : 16
Параметр Endianness формата : Big
Идентификатор кодека : A_DTS
Продолжительность : 2 ч. 27 м.
Вид битрейта : Постоянный
Битрейт : 1509 Кбит/сек
Каналы : 6 каналов
Расположение каналов : Front: L C R, Side: L R, LFE
Частота : 48,0 КГц
Битовая глубина : 24 бит
Метод сжатия : С потерями
Размер потока : 1,56 Гбайт (14%)
Заголовок : DTS, 1509 Кбит/сек, 48,0 КГц, 6 каналов
Язык : English
Default : Нет
Forced : Нет
Текст
Идентификатор : 4
Формат : PGS
Режим смешивания : zlib
Идентификатор кодека : S_HDMV/PGS
Идентификатор кодека/Информация : The same subtitle format used on BDs/HD-DVDs
Язык : English
Default : Да
Forced : Нет

Скриншоты


_________________
Показать сообщения:    

Текущее время: Сегодня 12:50

Часовой пояс: GMT



Вы не можете начинать темы
Вы не можете отвечать на сообщения
Вы не можете редактировать свои сообщения
Вы не можете удалять свои сообщения
Вы не можете голосовать в опросах
Вы не можете прикреплять файлы к сообщениям
Вы не можете скачивать файлы
Наши партнеры: интернет магазин Ивановского трикотажа textilla.ru