Важное объявление!
У Нас Все раздачи мультитрекерные, при нуле пиров в релизах, можете смело вставать на закачку!
 
Автор Сообщение

HUNTER

Стаж:
4 года 10 месяцев
Сообщений:
65473

Репутация: 101

[+] [-]
Вне форума [Профиль] [ЛС]

Тор 2: Царство тьмыThor: The Dark World-
Страна: США
Жанр: фэнтези, боевик, приключения
Год выпуска: 2013
Продолжительность: 01:52:04-Перевод: Профессиональный (полное дублирование)
Субтитры: английские (Полные, Форсированные, SDH), русские (Полные, Форсированные) [Notabenoid]-Режиссер: Алан Тейлор / Alan Taylor
В ролях:
Крис Хемсворт, Натали Портман, Том Хиддлстон, Энтони Хопкинс, Кристофер Экклстон, Джейми Александер, Закари Левай, Рэй Стивенсон, Таданобу Асано, Идрис Эльба, Рене Руссо, Адевале Акинойе-Агбаже, Кэт Деннингс, Элис Крайдж, Клайв Расселл ...
Дублёры: Иван Жарков (Thor), Татьяна Шитова (Jane Foster), Александр Гаврилин (Loki), Рудольф Панков (Odin), Валерий Сторожик (Malekith), Александра Фатхи (Sif), Данил Щебланов (Fandral), Сергей Чихачев (Volstagg), Радик Мухаметзянов (Hogun), Владислав Копп (Heimdall), Ольга Зубкова (Frigga), Полина Чекан (Darcy Lewis)-Описание: Продолжение приключений одного из членов команды Мстителей, скандинавского бога Тора, которому на этот раз в одиночку предстоит защитить Землю и все девять миров от нашествия неизвестного врага.
Могучему Тору предстоит вновь сразиться за восстановление порядка в галактике, встретившись лицом к лицу с древней инопланетной расой, ведомой злодеем Малекитом, жаждущим установить в девяти мирах власть тьмы. Столкнувшись с врагом, более могущественным чем сам Один и всё воинство Асгарда, Тор должен собрать силы для решающей битвы. Его ждёт опасное путешествие и долгожданная встреча со своей земной возлюбленной Джейн Фостер. Сможет ли Тор рискнуть самым дорогим, чтобы не дать тьме воцариться на просторах вселенной?-

MPAA: PG-13 - Детям до 13 лет просмотр не желателен-Качество: WEB-DL
Контейнер: MKV
Сэмпл
Видео: AVC, 1280x532 (2.40:1), 3978 kbps, 23,976 fps, 0,244 bpp
Аудио №1: русский / AC3 / 2.0 / 48 kHz / 384 kbps / 16 bit |Dub [Line]|
Аудио №2: английский / AC3 / 5.1 / 48 kHz / 384 kbps / 16 bit
Навигация по главам: есть, названия глав переведены на русский-

Скриншоты

Media Info

General
Unique ID : 230337923460769014500604651214453524458 (0xAD49786CED8751519B3C0E28CF92C7EA)
Complete name : D:\Thor.The.Dark.World.2013.720p.WEB-DL.Dub.Orig.Subs.mkv
Format : Matroska
Format version : Version 4 / Version 2
File size : 3.79 GiB
Duration : 1h 52mn
Overall bit rate : 4 843 Kbps
Movie name : Тор 2: Царство тьмы
Encoded date : UTC 2014-02-04 18:22:36
Writing application : mkvmerge v6.6.0 ('The Edge Of The In Between') built on Dec 1 2013 17:55:00
Writing library : libebml v1.3.0 + libmatroska v1.4.1
Video
ID : 1
Format : AVC
Format/Info : Advanced Video Codec
Format profile : Main@L3.1
Format settings, CABAC : No
Format settings, ReFrames : 2 frames
Codec ID : V_MPEG4/ISO/AVC
Duration : 1h 52mn
Bit rate : 3 979 Kbps
Width : 1 280 pixels
Height : 532 pixels
Display aspect ratio : 2.40:1
Frame rate mode : Constant
Frame rate : 23.976 fps
Color space : YUV
Chroma subsampling : 4:2:0
Bit depth : 8 bits
Scan type : Progressive
Bits/(Pixel*Frame) : 0.244
Stream size : 3.11 GiB (82%)
Language : English
Default : Yes
Forced : No
Color primaries : BT.709
Transfer characteristics : BT.709
Matrix coefficients : BT.709
Audio #1
ID : 2
Format : AC-3
Format/Info : Audio Coding 3
Mode extension : CM (complete main)
Format settings, Endianness : Big
Codec ID : A_AC3
Duration : 1h 52mn
Bit rate mode : Constant
Bit rate : 384 Kbps
Channel count : 2 channels
Channel positions : Front: L R
Sampling rate : 48.0 KHz
Bit depth : 16 bits
Compression mode : Lossy
Stream size : 308 MiB (8%)
Title : Dub [Line]
Language : Russian
Default : Yes
Forced : No
Audio #2
ID : 3
Format : AC-3
Format/Info : Audio Coding 3
Mode extension : CM (complete main)
Format settings, Endianness : Big
Codec ID : A_AC3
Duration : 1h 52mn
Bit rate mode : Constant
Bit rate : 384 Kbps
Channel count : 6 channels
Channel positions : Front: L C R, Side: L R, LFE
Sampling rate : 48.0 KHz
Bit depth : 16 bits
Compression mode : Lossy
Stream size : 308 MiB (8%)
Title : Orig
Language : English
Default : No
Forced : No
Text #1
ID : 4
Format : UTF-8
Codec ID : S_TEXT/UTF8
Codec ID/Info : UTF-8 Plain Text
Title : Forced
Language : English
Default : No
Forced : No
Text #2
ID : 5
Format : UTF-8
Codec ID : S_TEXT/UTF8
Codec ID/Info : UTF-8 Plain Text
Title : Full
Language : English
Default : No
Forced : No
Text #3
ID : 6
Format : UTF-8
Codec ID : S_TEXT/UTF8
Codec ID/Info : UTF-8 Plain Text
Title : Full SDH
Language : English
Default : No
Forced : No
Text #4
ID : 7
Format : UTF-8
Codec ID : S_TEXT/UTF8
Codec ID/Info : UTF-8 Plain Text
Title : Full
Language : Russian
Default : No
Forced : No
Text #5
ID : 8
Format : UTF-8
Codec ID : S_TEXT/UTF8
Codec ID/Info : UTF-8 Plain Text
Title : Forced
Language : Russian
Default : Yes
Forced : Yes
Menu
00:00:00.000 : en:Пролог
00:06:15.000 : en:Покой в Девяти Мирах
00:13:07.000 : en:Странные события в Лондоне
00:18:42.000 : en:Пробуждение Эфира
00:24:58.000 : en:Добро пожаловать в Асгард
00:29:09.000 : en:Последний из проклятых
00:41:35.000 : en:Нападение на Асгард
00:49:42.000 : en:Мы не бессмертны
00:55:58.000 : en:Отчаянные времена требуют отчаянных мер
01:00:10.000 : en:Побег из Асгарда
01:08:14.000 : en:Братья по оружию
01:12:41.000 : en:Возвращение в Царство тьмы
01:21:36.000 : en:Следуй за знаками
01:26:24.000 : en:Тор vs. Малекит vs. Схождение
01:34:00.000 : en:Освобождение Эфира
01:38:33.000 : en:Рожден править
01:41:50.000 : en:Конечные титры

_________________
Показать сообщения:    

Текущее время: Сегодня 06:21

Часовой пояс: GMT



Вы не можете начинать темы
Вы не можете отвечать на сообщения
Вы не можете редактировать свои сообщения
Вы не можете удалять свои сообщения
Вы не можете голосовать в опросах
Вы не можете прикреплять файлы к сообщениям
Вы не можете скачивать файлы