Торжественный финал / Grand Piano (Эухенио Мира / Eugenio Mira) [2013, Испания, США, триллер, детектив, BDRip 720p] MVO (R5) + DVO (den904 & DeadSno) + Original (Eng) + Sub (Rus, Eng) :: Ивановский Торрент трекер
Важное объявление!
У Нас Все раздачи мультитрекерные, при нуле пиров в релизах, можете смело вставать на закачку!
 
Автор Сообщение

HUNTER

Стаж:
4 года 11 месяцев
Сообщений:
66051

Репутация: 101

[+] [-]
Вне форума [Профиль] [ЛС]

Торжественный финал / Grand Piano
«Play or Die»
-
Страна: Испания, США
Жанр: триллер, детектив
Год выпуска: 2013
Продолжительность: 01:30:16-Перевод №1: Профессиональный (многоголосый, закадровый) - R5
Перевод №2: Любительский (двухголосый закадровый) - den904 & DeadSno - по переводу Janetta
Оригинальная аудиодорожка: English
Cубтитры: Русские (полные - Анастасия Weiz), English (full SDH)
Навигация по главам: присутствует - 12 глав - подписанные-Режиссер: Эухенио Мира / Eugenio Mira
В ролях: Элайджа Вуд, Джон Кьюсак, Аллен Лич, Тэмсин Эгертон, Керри Бише, Ди Уоллес-Стоун, Алекс Уинтер, Дон МакМанус, Дон Кресс, Кристофер Калер-Описание: История знаменитого пианиста, который на много лет оказывается отлученным от концертной деятельности из-за патологической боязни сцены. Когда же, наконец, ему удается преодолеть свой страх и выступить перед публикой, он вдруг узнает, что попал в смертельную ловушку. На выбор ему уготованы только два варианта — либо продолжать мастерски играть, либо погибнуть вместе с женой от рук загадочного безумца.-
Download sample-Качество видео: BDRip 720p | исх. BDRemux 1080p - thx: arxivariys
Формат: MKV-Видео: 1 280x534 (2.40:1), 23.976 fps, H.264 ~4 500 kbps avg, 0.265 bit/pixel
Аудио №1: 48.0 kHz, AC3 Dolby Digital, 3/2 (L,C,R,l,r) + LFE ch, ~384 kbps | Профессиональный (многоголосый, закадровый) - R5
Аудио №2: 48.0 kHz, AC3 Dolby Digital, 3/2 (L,C,R,l,r) + LFE ch, ~640 kbps | Любительский (двухголосый закадровый) - den904 & DeadSno - по переводу Janetta
Аудио №3: 48.0 kHz, AC3 Dolby Digital, 3/2 (L,C,R,l,r) + LFE ch, ~640 kbps | English
Субтитры №1: Русские (полные - Анастасия Weiz) | *.srt
Субтитры №2: English (full SDH) | *.srt-

MediaInfo

General
Unique ID : 219534041313396330844379550374866813761 (0xA528B7E8EAC0DC7593A9A687E03D8341)
Complete name : D:\Фильмы\Рипы\Grand Piano.2013.BDRip 720p.eFK tRuAVC.mkv
Format : Matroska
Format version : Version 4 / Version 2
File size : 3.87 GiB
Duration : 1h 30mn
Overall bit rate : 6 133 Kbps
Movie name : Торжественный финал / Grand Piano (2013) - Release for rutracker
Encoded date : UTC 2015-11-11 19:44:23
Writing application : mkvmerge v7.6.0 ('Garden of Dreams') 64bit built on Feb 8 2015 13:04:34
Writing library : libebml v1.3.1 + libmatroska v1.4.2
Attachements : cover.png
DURATION : 01:30:15.904000000
NUMBER_OF_FRAMES : 169247
NUMBER_OF_BYTES : 433272320
_STATISTICS_WRITING_APP : mkvmerge v7.6.0 ('Garden of Dreams') 64bit built on Feb 8 2015 13:04:34
_STATISTICS_WRITING_DATE_UT : 2015-11-11 19:44:23
_STATISTICS_TAGS : BPS DURATION NUMBER_OF_FRAMES NUMBER_OF_BYTES
Video
ID : 1
Format : AVC
Format/Info : Advanced Video Codec
Format profile : High@L4.1
Format settings, CABAC : Yes
Format settings, ReFrames : 11 frames
Codec ID : V_MPEG4/ISO/AVC
Duration : 1h 30mn
Bit rate : 4 347 Kbps
Width : 1 280 pixels
Height : 534 pixels
Display aspect ratio : 2.40:1
Frame rate mode : Constant
Frame rate : 23.976 fps
Color space : YUV
Chroma subsampling : 4:2:0
Bit depth : 8 bits
Scan type : Progressive
Bits/(Pixel*Frame) : 0.265
Stream size : 2.74 GiB (71%)
Title : eFK tRuAVC
Writing library : x264 core 148 r2638kMod 7599210
Encoding settings : cabac=1 / ref=11 / deblock=1:-3:-2 / analyse=0x3:0x113 / me=umh / subme=11 / psy=1 / fade_compensate=0.00 / psy_rd=1.05:0.10 / mixed_ref=1 / me_range=48 / chroma_me=1 / trellis=2 / 8x8dct=1 / cqm=0 / deadzone=21,11 / fast_pskip=0 / chroma_qp_offset=-3 / threads=12 / lookahead_threads=3 / sliced_threads=0 / nr=0 / decimate=1 / interlaced=0 / bluray_compat=0 / constrained_intra=0 / fgo=0 / bframes=16 / b_pyramid=2 / b_adapt=2 / b_bias=0 / direct=3 / weightb=1 / open_gop=0 / weightp=2 / keyint=250 / keyint_min=23 / scenecut=40 / intra_refresh=0 / rc_lookahead=60 / rc=crf / mbtree=0 / crf=17.5000 / qcomp=0.68 / qpmin=0 / qpmax=69 / qpstep=4 / vbv_maxrate=62500 / vbv_bufsize=78125 / crf_max=0.0 / nal_hrd=none / filler=0 / ip_ratio=1.40 / pb_ratio=1.30 / aq=3:0.75
Language : English
Default : Yes
Forced : No
Color range : Limited
Color primaries : BT.709
Transfer characteristics : BT.709
Matrix coefficients : BT.709
DURATION : 01:30:15.869000000
NUMBER_OF_FRAMES : 129851
NUMBER_OF_BYTES : 3021932377
_STATISTICS_WRITING_APP : mkvmerge v7.6.0 ('Garden of Dreams') 64bit built on Feb 8 2015 13:04:34
_STATISTICS_WRITING_DATE_UT : 2015-11-11 19:44:23
_STATISTICS_TAGS : BPS DURATION NUMBER_OF_FRAMES NUMBER_OF_BYTES
Audio #1
ID : 2
Format : AC-3
Format/Info : Audio Coding 3
Mode extension : CM (complete main)
Format settings, Endianness : Big
Codec ID : A_AC3
Duration : 1h 30mn
Bit rate mode : Constant
Bit rate : 384 Kbps
Channel(s) : 6 channels
Channel positions : Front: L C R, Side: L R, LFE
Sampling rate : 48.0 KHz
Compression mode : Lossy
Stream size : 248 MiB (6%)
Title : MVO (R5)
Language : Russian
Default : Yes
Forced : No
Audio #2
ID : 3
Format : AC-3
Format/Info : Audio Coding 3
Mode extension : CM (complete main)
Format settings, Endianness : Big
Codec ID : A_AC3
Duration : 1h 30mn
Bit rate mode : Constant
Bit rate : 640 Kbps
Channel(s) : 6 channels
Channel positions : Front: L C R, Side: L R, LFE
Sampling rate : 48.0 KHz
Compression mode : Lossy
Stream size : 413 MiB (10%)
Title : DVO (den904 & DeadSno)
Language : Russian
Default : No
Forced : No
Audio #3
ID : 4
Format : AC-3
Format/Info : Audio Coding 3
Mode extension : CM (complete main)
Format settings, Endianness : Big
Codec ID : A_AC3
Duration : 1h 30mn
Bit rate mode : Constant
Bit rate : 640 Kbps
Channel(s) : 6 channels
Channel positions : Front: L C R, Side: L R, LFE
Sampling rate : 48.0 KHz
Compression mode : Lossy
Stream size : 413 MiB (10%)
Language : English
Default : No
Forced : No
Text #1
ID : 5
Format : UTF-8
Codec ID : S_TEXT/UTF8
Codec ID/Info : UTF-8 Plain Text
Title : полные - Анастасия Weiz
Language : Russian
Default : No
Forced : No
Text #2
ID : 6
Format : UTF-8
Codec ID : S_TEXT/UTF8
Codec ID/Info : UTF-8 Plain Text
Title : full SDH
Language : English
Default : No
Forced : No
Menu
00:00:00.000 : :Where Is The Freakin' Thing
00:05:30.163 : :Classical Concert
00:13:02.698 : :Welcome Back
00:18:50.045 : :Five Minutes
00:28:29.541 : :Make Emma Pround
00:35:15.321 : :The One And Only
00:41:02.084 : :What Was That Tom?
00:48:54.222 : :Wat Are You Waiting For?
00:56:03.568 : :Tell Me Something
01:05:03.524 : :What Did You Do?
01:13:49.133 : :I Need To Finish This
01:18:05.681 : :End Credits

x264 log

x264 [info]: frame I:823 Avg QP:14.21 size: 84176
x264 [info]: frame P:26469 Avg QP:16.43 size: 40311
x264 [info]: frame B:102559 Avg QP:18.32 size: 18386
x264 [info]: consecutive B-frames: 1.6% 2.3% 7.8% 21.4% 12.2% 36.0% 4.4% 1.1% 2.5% 1.1% 1.8% 1.5% 1.7% 0.9% 1.4% 0.5% 1.9%
x264 [info]: mb I I16..4: 18.2% 65.5% 16.3%
x264 [info]: mb P I16..4: 1.6% 19.4% 1.7% P16..4: 22.4% 29.1% 10.6% 0.0% 0.0% skip:15.1%
x264 [info]: mb B I16..4: 0.2% 2.9% 0.1% B16..8: 34.4% 22.0% 4.2% direct: 7.3% skip:28.8% L0:47.6% L1:41.6% BI:10.9%
x264 [info]: 8x8 transform intra:84.8% inter:54.6%
x264 [info]: direct mvs spatial:100.0% temporal:0.0%
x264 [info]: coded y,uvDC,uvAC intra: 87.9% 80.1% 66.2% inter: 34.4% 25.6% 6.1%
x264 [info]: i16 v,h,dc,p: 46% 7% 12% 35%
x264 [info]: i8 v,h,dc,ddl,ddr,vr,hd,vl,hu: 12% 8% 16% 9% 11% 11% 11% 10% 12%
x264 [info]: i4 v,h,dc,ddl,ddr,vr,hd,vl,hu: 20% 9% 11% 8% 12% 11% 10% 9% 10%
x264 [info]: i8c dc,h,v,p: 49% 24% 15% 12%
x264 [info]: Weighted P-Frames: Y:7.4% UV:3.1%
x264 [info]: ref P L0: 39.2% 6.4% 19.2% 9.0% 7.2% 4.8% 4.5% 2.8% 2.6% 2.0% 2.0% 0.3% 0.0%
x264 [info]: ref B L0: 57.9% 15.1% 8.8% 5.2% 3.8% 3.1% 2.5% 2.1% 1.1% 0.4%
x264 [info]: ref B L1: 88.9% 11.1%
x264 [info]: kb/s:4463.82
x264 [total]: encoded 129851 frames, 6.53 fps, 4463.82 kb/s, duration 5:31:35.56

Comparison

Source

Encode

_________________
Показать сообщения:    

Текущее время: Сегодня 05:29

Часовой пояс: GMT



Вы не можете начинать темы
Вы не можете отвечать на сообщения
Вы не можете редактировать свои сообщения
Вы не можете удалять свои сообщения
Вы не можете голосовать в опросах
Вы не можете прикреплять файлы к сообщениям
Вы не можете скачивать файлы