Ивановский Торрент трекер
Яндекс.Погода
 

[Цитировать]
HUNTER

Торжественное шествие ветеранов Великой Отечественной войны и возложение венков к монументу Победы
Год выпуска: 2013
Производство: Беларусь, Беларусь 24
Жанр: Документальный
Продолжительность: 00:47:38
Язык: Русский
Описание: 9 мая 2013 года. Торжественное шествие ветеранов Великой Отечественной войны и возложение венков к монументу Победы.
Релиз от: & специально для
Раздача от группы:
Семпл: http://multi-up.com/863738
Качество: DVB (IPTV)
Формат: MPEG
Видео кодек: MPEG
Аудио кодек: MP2
Видео: MPEG2 Video 544х576@768х576 (4:3) 25.000 fps ~2 832 Kbps, 0.362 bit/pixel
Аудио: MP2 48000Hz 2 channel 128 Кбит/сек

MI

Общее
Полное имя Shestviye.veteranov.Belarus.2013.DVB.Files-x.mpg
Формат : MPEG-PS
Размер файла : 1,01 Гбайт
Продолжительность : 47 м.
Режим общего битрейта : Переменный
Общий поток : 3020 Кбит/сек
Библиотека кодирования : (c) 1998-2010 Womble Multimedia, Inc. / MPEG Video Wizard DVD 5.0.0.114 (01/2010) / Nov 13 2010
Видео
Идентификатор : 224 (0xE0)
Формат : MPEG Video
Версия формата : Version 2
Профиль формата : Main@Main
Параметр BVOP формата : Да
Параметр матрицы формата : Выборочная
Параметр GOP формата : Variable
Продолжительность : 47 м.
Вид битрейта : Переменный
Битрейт : 2832 Кбит/сек
Максимальный битрейт : 15,0 Мбит/сек
Ширина : 544 пикселя
Высота : 576 пикселей
Соотношение сторон : 4:3
Частота кадров : 25,000 кадров/сек
Цветовое пространство : YUV
Субдискретизация насыщенности : 4:2:0
Битовая глубина : 8 бит
Тип развёртки : Чересстрочная
Порядок развёртки : Верхнее поле первое
Метод сжатия : С потерями
Бит/(Пиксели*Кадры) : 0.362
TimeCode_FirstFrame : 00:00:00:00
TimeCode_Source : Group of pictures header
Размер потока : 965 Мбайт (94%)
Библиотека кодирования : (c) 1998-2010 Womble Multimedia, Inc. / MPEG Video Wizard DVD 5.0.0.114 (01/2010) / Nov 13 2010
Аудио
Идентификатор : 192 (0xC0)
Формат : MPEG Audio
Версия формата : Version 1
Профиль формата : Layer 2
Продолжительность : 47 м.
Вид битрейта : Постоянный
Битрейт : 128 Кбит/сек
Каналы : 2 канала
Частота : 48,0 КГц
Метод сжатия : С потерями
Размер потока : 43,6 Мбайт (4%)

Скриншоты



Показать сообщения:    

Текущее время: 18-Дек 16:48

Часовой пояс: UTC ± 0


Вы не можете начинать темы
Вы не можете отвечать на сообщения
Вы не можете редактировать свои сообщения
Вы не можете удалять свои сообщения
Вы не можете голосовать в опросах
Вы не можете прикреплять файлы к сообщениям
Вы не можете скачивать файлы

!ВНИМАНИЕ!
Сайт не предоставляет электронные версии произведений, а занимается лишь коллекционированием и каталогизацией ссылок, присылаемых и публикуемых на форуме нашими читателями. Если вы являетесь правообладателем какого-либо представленного материала и не желаете, чтобы ссылка на него находилась в нашем каталоге, свяжитесь с нами, и мы незамедлительно удалим ее. Файлы для обмена на трекере предоставлены пользователями сайта, и администрация не несет ответственности за их содержание. Просьба не заливать файлы, защищенные авторскими правами, а также файлы нелегального содержания!