Ивановский Торрент трекер
Яндекс.Погода
 

[Цитировать]
HUNTER

- Год выпуска: 2008
Страна: Япония
Жанр: комедия, романтика, драма, повседневность
Продолжительность: ТВ-сериал, 25+1 эп. по 25 мин.
Выпуск: c 02.10.2008 по 26.03.2009-Перевод:
  • русские субтитры от Pelikan & r00teniy & Viper (полные/вспомогательные)
-Режиссер: Нагай Тацуюки
Студия: J.C. Staff-Описание:
Рюдзи Такасу в жизни крупно не повезло. Покойный папаша-мафиози наградил сына таким лицом и глазами, что стоит ему не так взглянуть – учителя впадают в ступор, а одноклассники сами достают бумажники. В итоге Рюдзи, чье имя к тому же значит «Дракон», считается самым крутым хулиганом в округе и все его избегают, кроме единственного друга, Юсаку Китамуры. А ведь в душе главный герой – мягкий и романтичный парень, который еще и тащит на себе все домашнее хозяйство, вместе с попугаем Инко и непутевой маманей впридачу.
Единственная отрада Рюдзи в том, что в старшей школе в один класс с ним попали не только лучший друг Китамура, но и любовь всей жизни Минору Кусиэда – милая и энергичная девушка. А теперь плохие новости: все, кроме него, уже в курсе, что туда же приходит маленькая, плоскогрудая и на редкость вспыльчивая красавица Тайга Айсака по прозвищу «Карманный Тигр»! Вся школа застыла в ожидании – что будет, когда столкнутся две местные легенды – Тигр и Дракон?! Чтобы узнать ответ, смотрите новую искрометную школьную комедию положений, снятую по бесспорным мотивам «Сяны», «Хаятэ» и «Луизы»!
© Hollow, World Art-Информационные ссылки: AniDB || World Art || MAL-Качество: BDRip
Энкод: Winter - RG Pantheon
Тип видео: без хардсаба
Формат: mkv
Видео: x264 (Hi10p), 1280x720, ~2900 Kbps, 23.976 fps
Аудио JAP: Vorbis, 48000Hz, ~256 Kbps, 2ch
Аудио RUS TV 1-3: AC3, 48000Hz, ~192 Kbps, 2ch (внешними файлами)
Аудио RUS SP 1-5: AC3, 48000Hz, ~192 Kbps, 2ch (внешними файлами)-

Список озвучек в раздаче

  • ТV
  • одноголосая (муж.) от Ancord (AniDub)
  • двухголосая (жен./муж.) от Persona99 & MaxDamage (GetSmart)
  • двухголосая (муж./жен.) от ZENDOS & Milirina (Anilibria & Anything-group)
    SP
  • одноголосая (муж.) от NegauShi
  • двухголосая (жен./муж.) от Ancord & NikaLenina (AniDub)
  • двухголосая (муж./жен.) от DAKJE & Phobia
  • двухголосая (муж./жен.) от RedRain и Няшка
  • двухголосая (муж./жен.) от ZENDOS & Milirina (Anilibria & Anything-group)

Список эпизодов

01. Tiger and Dragon
02. Ryuuji and Taiga
03. Your Song
04. That Moment`s Face
05. Kawashima Ami
06. True Colors
07. Pool Opening
08. For Whose Sake?
09. Let`s Go to the
10. Fireworks
11. Oohashi High School Festival - First Part
12. Oohashi High School Festival - Second Part
13. Oohashi High School Festival - Final Part
14. Palmtop Tiger of Bliss
15. The Stars Are Far Away
16. One Step Forward
17. Mercury Retrogrades at Christmas
18. Under the Fir Tree
19. Holy Night Party
20. Always, Like This
21. No Matter What
22. The Scene With You
23. The Road That We Must Advance on
24. Confession
25. Toradora!
SP (OVA). The True Meaning of Bentou

Скриншоты


Подробные тех. данные

Общее
Уникальный идентификатор : 219142710631198690387130056055326733405 (0xA4DD59D14C3DD29EA8349E07080F745D)
Полное имя : Z:\Anime\720p\Toradora! [BD] [720p]\[Winter] Toradora! 03 [BDrip 1280x720 x264 Vorbis].mkv
Формат : Matroska
Версия формата : Version 2
Размер файла : 616 Мбайт
Продолжительность : 23 м.
Режим общего битрейта : Переменный
Общий поток : 3648 Кбит/сек
Дата кодирования : UTC 2013-09-22 08:17:14
Программа кодирования : mkvmerge v2.9.8 ('C'est le bon') built on Aug 13 2009 12:49:06
Библиотека кодирования : libebml v0.7.7 + libmatroska v0.8.1
Видео
Идентификатор : 1
Формат : AVC
Формат/Информация : Advanced Video Codec
Профиль формата : High 10@L4.1
Параметр CABAC формата : Да
Параметр ReFrames формата : 9 кадров
Идентификатор кодека : V_MPEG4/ISO/AVC
Продолжительность : 23 м.
Битрейт : 3319 Кбит/сек
Ширина : 1280 пикселей
Высота : 720 пикселей
Соотношение сторон : 16:9
Режим частоты кадров : Постоянный
Частота кадров : 23,976 кадра/сек
Цветовое пространство : YUV
Субдискретизация насыщенности : 4:2:0
Битовая глубина : 10 бит
Тип развёртки : Прогрессивная
Бит/(Пиксели*Кадры) : 0.150
Размер потока : 560 Мбайт (91%)
Библиотека кодирования : x264 core 132 r2309 3b1f1f7
Настройки программы : cabac=1 / ref=9 / deblock=1:-2:-2 / analyse=0x3:0x133 / me=umh / subme=9 / psy=1 / psy_rd=0.90:0.00 / mixed_ref=1 / me_range=24 / chroma_me=1 / trellis=2 / 8x8dct=1 / cqm=0 / deadzone=21,11 / fast_pskip=1 / chroma_qp_offset=-2 / threads=6 / lookahead_threads=1 / sliced_threads=0 / nr=0 / decimate=0 / interlaced=0 / bluray_compat=0 / constrained_intra=0 / bframes=8 / b_pyramid=2 / b_adapt=2 / b_bias=0 / direct=1 / weightb=1 / open_gop=0 / weightp=2 / keyint=250 / keyint_min=23 / scenecut=40 / intra_refresh=0 / rc=crf / mbtree=0 / crf=15.8 / qcomp=0.70 / qpmin=9 / qpmax=45 / qpstep=4 / ip_ratio=1.40 / pb_ratio=1.30 / aq=1:0.90 / zones=3389,3532,b=1.5
Default : Нет
Forced : Нет
Аудио
Идентификатор : 2
Формат : Vorbis
Параметр Floor формата : 1
Идентификатор кодека : A_VORBIS
Продолжительность : 23 м.
Вид битрейта : Переменный
Битрейт : 256 Кбит/сек
Каналы : 2 канала
Частота : 48,0 КГц
Метод сжатия : С потерями
Размер потока : 43,2 Мбайт (7%)
Библиотека кодирования : libVorbis (Omnipresent) (20120203 (Omnipresent))
Язык : Japanese
Default : Да
Forced : Нет
- -

Информация о релизе

  • Выбор видео, перевода, озвучки, а также типа сборки материала осуществляется релизером и не подлежит обсуждению. Если вы считаете, что раздаваемый материал противоречит правилам раздела "Аниме" rutracker.org, сообщите об этом одному из модераторов раздела.
  • В случае появления нового материала или же лучшего по качеству материала релизер оставляет за собой право обновить раздачу. В этом случае вам необходимо ознакомиться с изменениями (добавлениями) и перекачать торрент.
  • Данный релиз предназначен для просмотра на ПК. Воспроизведение на иных проигрывателях не гарантируется. Для просмотра рекомендуется Media Player Classic с установленным пакетом кодеков K-Lite.
  • Данный релиз содержит 10-битное видео (Hi10p). Для корректного воспроизведения обязательно используйте кодеки, поддерживающие 10-битное видео.
    Обсудить проблемы с воспроизведением и получить дополнительную информацию можно здесь.

  • Данный релиз предназначен для просмотра с внешними субтитрами и внешними звуковыми дорожками.
    • Для просмотра с внешней звуковой дорожкой нужно:
      перекинуть файлы .mka из папки "RUS Sound [<автор(ы) озвучки>]" в одну папку с видео и переключить звуковую дорожку в плеере при просмотре. Как это сделать в разных плеерах подробно описано здесь.

    • Для просмотра с субтитрами нужно:
      перекинуть файлы .ass из папки "RUS Subtitles [<автор(ы) перевода>]" в одну папку с видео - плеер подгрузит их автоматически при открытии видео.
  • Если у вас возникли проблемы с просмотром, не связанные с описанным выше, сообщите о них автору раздачи посредством сообщения в теме или ЛС Aglenn.
Показать сообщения:    

Текущее время: 23-Окт 21:38

Часовой пояс: UTC - 1


Вы не можете начинать темы
Вы не можете отвечать на сообщения
Вы не можете редактировать свои сообщения
Вы не можете удалять свои сообщения
Вы не можете голосовать в опросах
Вы не можете прикреплять файлы к сообщениям
Вы не можете скачивать файлы

!ВНИМАНИЕ!
Сайт не предоставляет электронные версии произведений, а занимается лишь коллекционированием и каталогизацией ссылок, присылаемых и публикуемых на форуме нашими читателями. Если вы являетесь правообладателем какого-либо представленного материала и не желаете, чтобы ссылка на него находилась в нашем каталоге, свяжитесь с нами, и мы незамедлительно удалим ее. Файлы для обмена на трекере предоставлены пользователями сайта, и администрация не несет ответственности за их содержание. Просьба не заливать файлы, защищенные авторскими правами, а также файлы нелегального содержания!