Ивановский Торрент трекер
Яндекс.Погода
 

[Цитировать]
HUNTER

Топ Модель / Top Model / 11 Days 11 Nights: Part 2 - The Twilight World
Страна: Италия
Жанр: драма
Год выпуска: 1988
Продолжительность: 01:23:35
Перевод: Авторский (одноголосый закадровый) Дохалов
Cубтитры: итальянские
Оригинальная аудиодорожка: итальянский
Режиссер: Джо Д’Амато / Joe D'Amato
В ролях: Джессика Мур, Джеймс Саттерфилд, Эйл Дугас
Описание: История женщины, которая хочет написать книгу о проституции. Для этого ей необходимо собрать соответствующий материал. Сара, так зовут писательницу, решает сама освоить древнейшую профессию, чтобы книга получилась более живой и достоверной. Однако события складываются несколько иначе. Сара знакомится с обаятельным человеком, хочет выйти за него замуж и принадлежать только ему одному. .
Доп. информация: Диск из собственной коллекции.
Бонусы: Интервью, трейлеры, галерея.
Сэмпл: http://sendfile.su/1129926
Тип релиза: DVD9 (Custom)
Контейнер: DVD-Video
Видео: PAL 4:3 (720x576) VBR
Аудио: Italiano (Dolby AC3, 192 Kbps, 2 ch)
Аудио 2: Russian (Dolby AC3, 192 Kbps, 2 ch)
Формат субтитров: prerendered (DVD/IDX+SUB)

DVDInfo

Size: 6.35 Gb ( 6 654 348 KBytes ) - DVD-9
Enabled regions: 1, 2, 3, 4, 5, 6, 7, 8
VTS_01 :
Play Length: 01:23:35
Video: PAL 4:3 (720x576) VBR
Audio:
Italiano (Dolby AC3, 2 ch)
Russian (Dolby AC3, 2 ch)
Subtitles:
Italiano
VTS_02 :
Play Length: 00:00:48+00:24:25
Video: PAL 16:9 (720x576) VBR, Auto Pan&Scan
Audio:
Italiano (Dolby AC3, 2 ch)
Subtitles:
Italiano
VTS_03 :
Play Length: 00:02:53+00:01:19
Video: PAL 4:3 (720x576) VBR
Audio:
Italiano (Dolby AC3, 2 ch)
Subtitles:
Italiano
VTS_04 :
Play Length: 00:02:57+00:03:31+00:03:49+00:03:50+00:02:39+00:02:36+00:03:53+00:03:36+00:02:45
Video: PAL 4:3 (720x576) VBR
Audio:
Italiano (Dolby AC3, 2 ch)
Subtitles:
Italiano
Menu Video:
PAL 16:9 (720x576) VBR
Auto Pan&Scan
Menu Audio:
Not specified (Dolby AC3, 2 ch)
Menu Subtitles:
Not specified
Menu Italiano Language Unit :
Root Menu
Subpicture Menu
Chapter (PTT) Menu

MediaInfo

General
Complete name : F:\Top Model_1988\VIDEO_TS\VTS_01_1.VOB
Format : MPEG-PS
File size : 1 024 MiB
Duration : 21mn 3s
Overall bit rate mode : Variable
Overall bit rate : 6 799 Kbps
Video
ID : 224 (0xE0)
Format : MPEG Video
Format version : Version 2
Format profile : Main@Main
Format settings, BVOP : Yes
Format settings, Matrix : Default
Format settings, GOP : M=3, N=12
Duration : 21mn 3s
Bit rate mode : Variable
Bit rate : 6 280 Kbps
Maximum bit rate : 9 000 Kbps
Width : 720 pixels
Height : 576 pixels
Display aspect ratio : 4:3
Frame rate : 25.000 fps
Standard : PAL
Color space : YUV
Chroma subsampling : 4:2:0
Bit depth : 8 bits
Scan type : Interlaced
Scan order : Top Field First
Compression mode : Lossy
Bits/(Pixel*Frame) : 0.606
Stream size : 946 MiB (92%)
Color primaries : BT.601 PAL
Transfer characteristics : BT.470 System B, BT.470 System G
Matrix coefficients : BT.601
Audio #1
ID : 189 (0xBD)-128 (0x80)
Format : AC-3
Format/Info : Audio Coding 3
Mode extension : CM (complete main)
Format settings, Endianness : Big
Muxing mode : DVD-Video
Duration : 21mn 3s
Bit rate mode : Constant
Bit rate : 192 Kbps
Channel(s) : 2 channels
Channel positions : Front: L R
Sampling rate : 48.0 KHz
Bit depth : 16 bits
Compression mode : Lossy
Stream size : 28.9 MiB (3%)
Audio #2
ID : 189 (0xBD)-129 (0x81)
Format : AC-3
Format/Info : Audio Coding 3
Mode extension : CM (complete main)
Format settings, Endianness : Big
Muxing mode : DVD-Video
Duration : 21mn 3s
Bit rate mode : Constant
Bit rate : 192 Kbps
Channel(s) : 2 channels
Channel positions : Front: L R
Sampling rate : 48.0 KHz
Bit depth : 16 bits
Compression mode : Lossy
Stream size : 28.9 MiB (3%)
Menu

Постеры, обложка и блин

Скриншоты меню

Скриншоты

Показать сообщения:    

Текущее время: 20-Окт 15:11

Часовой пояс: UTC - 1


Вы не можете начинать темы
Вы не можете отвечать на сообщения
Вы не можете редактировать свои сообщения
Вы не можете удалять свои сообщения
Вы не можете голосовать в опросах
Вы не можете прикреплять файлы к сообщениям
Вы не можете скачивать файлы

!ВНИМАНИЕ!
Сайт не предоставляет электронные версии произведений, а занимается лишь коллекционированием и каталогизацией ссылок, присылаемых и публикуемых на форуме нашими читателями. Если вы являетесь правообладателем какого-либо представленного материала и не желаете, чтобы ссылка на него находилась в нашем каталоге, свяжитесь с нами, и мы незамедлительно удалим ее. Файлы для обмена на трекере предоставлены пользователями сайта, и администрация не несет ответственности за их содержание. Просьба не заливать файлы, защищенные авторскими правами, а также файлы нелегального содержания!