Ивановский Торрент трекер
Яндекс.Погода
 

[Цитировать]
HUNTER

Топ Кэт / Don gato y su pandilla«Держи хвост пистолетом!»- Страна: Мексика, Аргентина, Великобритания
Жанр: мультфильм, боевик, комедия, семейный
Год выпуска: 2011
Продолжительность: 01:31:52
Перевод: Профессиональный (полное дублирование)
Русские субтитры: Нет-Режиссер: Альберто Мар / Alberto Mar-Роли озвучивали: Джейсон Харрис (Top Cat / Griswald / Lou Strictland / Choo Choo / Brain / Big Gus / Maharaja / Lobster, озвучка), Крис Эджерли (Benny / Robot, озвучка), Билл Лобли (Officer Dibble, озвучка), Бен Дискин (Spook, озвучка), Мэттью Пьяцци (Fancy Fancy, озвучка), Мелисса Дисней (Trixie, озвучка), Боб Калибан (Judge / Police Chief / Mayor, озвучка), Брайан МакФедден (Gerry, озвучка), Фред Татаскьор (Robot / Gorilla, озвучка), Крис Филлипс (Vinny / Spectrum, озвучка), Джим Конрой (дополнительные голоса, озвучка), Сондра Джеймс (Other Voices, озвучка)-Описание: Супер Кот и его озорная шайка бродячих котов сталкиваются с новым шефом полиции и своим старым заклятым врагом - офицером Дибблом. Полиция полна решимости помешать проделкам Кота и надеется выдворить его из любимого переулка. Но как бы они не старались, команде Супер Кота всегда удается обвести блюстителей закона вокруг пальца.-Рейтинг:

MPAA: - Рекомендуется присутствие родителей-Мировая премьера: 16 сентября 2011
Релиз на DVD: 13 декабря 2012 «Союз-Видео»
Релиз на Blu-ray: 5 февраля 2013 «Союз-Видео», «Lizard Cinema Trade»-Релиз: -Семпл-Качество: BDRip [Top Cat.2011.BDRemux 1080p]
Формат: AVI
Видео: 720x400 (1.80:1), 23.976 fps, XviD build 65 ~1812 kbps avg, 0.26 bit/pixel
Аудио: 48 kHz, AC3 Dolby Digital, 3/2 (L,C,R,l,r) + LFE ch, ~448 kbps
Субтитры: Отсутствуют-

MI

Format : AVIFormat/Info : Audio Video InterleaveFile size : 1.45 GiBDuration : 1h 31mnOverall bit rate : 2 267 KbpsWriting application : VirtualDubMod 1.5.10.3 | www.virtualdub-fr.org || (build 2550/release)Writing library : VirtualDubMod build 2550/release
VideoID : 0Format : MPEG-4 VisualFormat profile : Advanced Simple@L5Format settings, BVOP : 2Format settings, QPel : NoFormat settings, GMC : No warppointsFormat settings, Matrix : CustomCodec ID : XVIDCodec ID/Hint : XviDDuration : 1h 31mnBit rate : 1 813 KbpsWidth : 720 pixelsHeight : 400 pixelsDisplay aspect ratio : 16:9Frame rate : 23.976 fpsColor space : YUVChroma subsampling : 4:2:0Bit depth : 8 bitsScan type : ProgressiveCompression mode : LossyBits/(Pixel*Frame) : 0.263Stream size : 1.16 GiB (80%)Writing library : XviD 65
AudioID : 1Format : AC-3Format/Info : Audio Coding 3Mode extension : CM (complete main)Format settings, Endianness : BigCodec ID : 2000Duration : 1h 31mnBit rate mode : ConstantBit rate : 448 KbpsChannel(s) : 6 channelsChannel positions : Front: L C R, Side: L R, LFESampling rate : 48.0 KHzBit depth : 16 bitsCompression mode : LossyStream size : 292 MiB (20%)Alignment : Split accross interleavesInterleave, duration : 42 ms (1.01 video frame)Interleave, preload duration : 500 ms

Знаете ли Вы, что...

  • Это второй раз, когда студия Anima выпускает фильм на английском языке в другой стране. Первым был Кунг-фу Магу (2010), который был выпущен на DVD и показывался на канале Disney XD, но не вышел на экраны кинотеатров.
  • Этот фильм является первым в истории студий Anima (Мексика) и Illusion (Аргентина), который вышел на экраны кинотеатров на английском языке.
  • В Мексике одноименный мультсериал был гораздо более популярен, чем в США. Актер Хорхе Арвису, который озвучивал мультсериал 1960-х годов, озвучил и здесь тех же персонажей - Бенни и Чу Чу (в Мексике они известны как Benito Bodoque и Cucho).
  • Благодаря своей чрезвычайной популярности одноименный мультсериал 1960-х долгие годы транслировался на телевидении в Мексике. Создатели фильма пытались возродить классических персонажей для современного поколения. И впервые студия Warner Bros. разрешила другой компании использовать принадлежащего ей героя в фильме.
  • Это первый в истории флеш-анимационный фильм, который выпущен в RealD 3D.
  • В Великобритании этот фильм стал первым анимационным фильмом в 2D для дистрибьютора Vertigo Films.
  • еще 3 факта
  • Повязка с шипами на мускулистом псе (Дон Гато) постоянно прыгает с его левой руки на правую во всех сценах с его участием.
  • Все раздачи мультфильма!


    Показать сообщения:    

    Текущее время: 18-Дек 03:29

    Часовой пояс: UTC ± 0


    Вы не можете начинать темы
    Вы не можете отвечать на сообщения
    Вы не можете редактировать свои сообщения
    Вы не можете удалять свои сообщения
    Вы не можете голосовать в опросах
    Вы не можете прикреплять файлы к сообщениям
    Вы не можете скачивать файлы

    !ВНИМАНИЕ!
    Сайт не предоставляет электронные версии произведений, а занимается лишь коллекционированием и каталогизацией ссылок, присылаемых и публикуемых на форуме нашими читателями. Если вы являетесь правообладателем какого-либо представленного материала и не желаете, чтобы ссылка на него находилась в нашем каталоге, свяжитесь с нами, и мы незамедлительно удалим ее. Файлы для обмена на трекере предоставлены пользователями сайта, и администрация не несет ответственности за их содержание. Просьба не заливать файлы, защищенные авторскими правами, а также файлы нелегального содержания!