Важное объявление!
У Нас Все раздачи мультитрекерные, при нуле пиров в релизах, можете смело вставать на закачку!
 
Автор Сообщение

HUNTER

Стаж:
4 года 6 месяцев
Сообщений:
61006

Репутация: 101

[+] [-]
Вне форума [Профиль] [ЛС]

Топ Гир: Идеальное путешествие / Top Gear: The Perfect Road Trip
Год выпуска: 2013
Страна: Великобритания
Жанр: Автошоу
Продолжительность: 01:24:16
Перевод: профессиональный двухголосый закадровый (AlexFilm)
В ролях: Джереми Кларксон (Jeremy Clarkson), Джеймс Мэй (James May), кузен Стига из Йоркшира (Stig's Yorkshire cousin)
Описание: Приветствуем всех зрителей на очередном специальном выпуске Top Gear. Сразу же после выхода 20-го сезона, команда BBC сообщила, что как это уже заведено Top Gear порадует всех зрителей новым специальным выпуском, что и случилось в ноябре 2013 года, новый специальный выпуск называется "Top Gear - Идеальное путешествие". В этом специальном выпуске участвуют только двое ведущих, это Джерeми Кларксон и Ричард Хаммонд.
Джереми и Ричард Хаммонд расскажут нам что по их мнению "идеальное путешествие". Их цель в этом выпуске - это выбор лучшего вида транспорта для разных путешествий по Европе. Цель непростая - ведь выбор так велик. Ричард и Джереми прокатятся на 20 разных автомобилях, начиная от простых и удобных, заканчивая сложными и самыми дорогими в мире, таких как Bugatti, Lamborghini и многие другие.
Доп. информация:
Перевод: Константин Кривоногов
Монтаж и сведение звука: Сергей Мартынов
Роли озвучивали: Роман Сопко и Александр Дасевич
Качество: BDRip 720p
Формат: MKV
Видео кодек: H.264
Аудиокодек: AC3
Видео: MPEG-4 AVC / ~9907 Кбит/сек / 1280x720 / 25.000 fps / 16:9 / 0.429 bit/pixel / High Profile 4.1
Аудио #1: Russian / DTS 5.1, 48 kHz, 1536 Kbps |Многоголосый закадровый||AlexFilm|
Аудио #2: English / DTS 5.1, 48 kHz, 1536 Kbps |Оригинал|
Субтитры: English, English SDH
Цитата:

Рип NTb.
Сохранены оригинальные чаптеры как на Blu-ray.

Скачать сэмпл

Сэмпл

MI


General
Unique ID : 200821462488790572346619677482092351375 (0x9714CE8AFCC8A7BDACC4300B44144F8F)
Complete name : \Top.Gear.The.Perfect.Road.Trip.2013.720p.BluRay.Rus.Eng.AlexFilm.mkv
Format : Matroska
Format version : Version 4 / Version 2
File size : 7.80 GiB
Duration : 1h 24mn
Overall bit rate : 13.2 Mbps
Encoded date : UTC 2013-12-15 18:32:59
Writing application : mkvmerge v6.6.0 ('The Edge Of The In Between') built on Dec 1 2013 17:55:00
Writing library : libebml v1.3.0 + libmatroska v1.4.1
Video
ID : 1
Format : AVC
Format/Info : Advanced Video Codec
Format profile : High@L4.1
Format settings, CABAC : Yes
Format settings, ReFrames : 9 frames
Codec ID : V_MPEG4/ISO/AVC
Duration : 1h 24mn
Bit rate : 9 878 Kbps
Width : 1 278 pixels
Height : 720 pixels
Display aspect ratio : 16:9
Frame rate mode : Constant
Frame rate : 25.000 fps
Color space : YUV
Chroma subsampling : 4:2:0
Bit depth : 8 bits
Scan type : Progressive
Bits/(Pixel*Frame) : 0.429
Stream size : 5.86 GiB (75%)
Title : Top Gear: The Perfect Road Trip UK
Writing library : x264 core 140 r2377kMod 1ca7bb9
Encoding settings : cabac=1 / ref=9 / deblock=1:-3:-3 / analyse=0x3:0x133 / me=umh / subme=10 / psy=1 / fade_compensate=0.00 / psy_rd=1.05:0.00 / mixed_ref=1 / me_range=48 / chroma_me=1 / trellis=2 / 8x8dct=1 / cqm=0 / deadzone=21,11 / fast_pskip=0 / chroma_qp_offset=-2 / threads=6 / lookahead_threads=1 / sliced_threads=0 / nr=0 / decimate=0 / interlaced=0 / bluray_compat=0 / constrained_intra=0 / fgo=0 / bframes=9 / b_pyramid=2 / b_adapt=2 / b_bias=0 / direct=3 / weightb=1 / open_gop=0 / weightp=2 / keyint=250 / keyint_min=23 / scenecut=40 / intra_refresh=0 / rc_lookahead=100 / rc=crf / mbtree=0 / crf=17.0000 / qcomp=0.70 / qpmin=0 / qpmax=69 / qpstep=4 / vbv_maxrate=50000 / vbv_bufsize=62500 / crf_max=0.0 / nal_hrd=none / filler=0 / ip_ratio=1.30 / pb_ratio=1.20 / aq=1:0.80
Language : English
Default : Yes
Forced : No
Audio #1
ID : 2
Format : DTS
Format/Info : Digital Theater Systems
Mode : 16
Format settings, Endianness : Big
Codec ID : A_DTS
Duration : 1h 24mn
Bit rate mode : Constant
Bit rate : 1 509 Kbps
Channel(s) : 6 channels
Channel positions : Front: L C R, Side: L R, LFE
Sampling rate : 48.0 KHz
Bit depth : 24 bits
Compression mode : Lossy
Stream size : 916 MiB (11%)
Title : DTS 5.1 @ 1536 kbps - AlexFilm
Language : Russian
Default : Yes
Forced : No
Audio #2
ID : 3
Format : DTS
Format/Info : Digital Theater Systems
Mode : 16
Format settings, Endianness : Big
Codec ID : A_DTS
Duration : 1h 24mn
Bit rate mode : Constant
Bit rate : 1 509 Kbps
Channel(s) : 6 channels
Channel positions : Front: L C R, Side: L R, LFE
Sampling rate : 48.0 KHz
Bit depth : 24 bits
Compression mode : Lossy
Stream size : 916 MiB (11%)
Title : DTS 5.1 @ 1536 kbps
Language : English
Default : No
Forced : No
Text #1
ID : 4
Format : UTF-8
Codec ID : S_TEXT/UTF8
Codec ID/Info : UTF-8 Plain Text
Language : English
Default : No
Forced : No
Text #2
ID : 5
Format : UTF-8
Codec ID : S_TEXT/UTF8
Codec ID/Info : UTF-8 Plain Text
Title : SDH
Language : English
Default : No
Forced : No
Menu
00:00:00.000 : :Opening Titles
00:03:15.760 : :Mercedes SLS Black vs Ferrari F12
00:14:21.640 : :Pagani Hauyra vs Porsche Cayman S
00:26:40.920 : :VW Golf GTI vs Ford Fiesta ST
00:31:44.600 : :Lamborghini Aventador Roadster vs Bugatti Veyron Vitesse
00:37:55.440 : :Jaguar E-Type vs Jaguar F-Type
00:45:28.480 : :Ducati Diavel Dark vs Fairline Squadron 78
00:54:27.000 : :Bentley Continental GTC
01:00:12.800 : :Rolls Royce Phantom vs Maserati Quattroporte
01:01:15.160 : :Nissan 350Z vs BMW Z4
01:13:26.720 : :Aston Martin V12 Vanquish vs Porsche 911
01:20:22.480 : :Favourite Cars
01:23:35.040 : :End Credits

Скриншоты


_________________
Показать сообщения:    

Текущее время: Сегодня 05:05

Часовой пояс: GMT



Вы не можете начинать темы
Вы не можете отвечать на сообщения
Вы не можете редактировать свои сообщения
Вы не можете удалять свои сообщения
Вы не можете голосовать в опросах
Вы не можете прикреплять файлы к сообщениям
Вы не можете скачивать файлы
Наши партнеры: интернет магазин Ивановского трикотажа textilla.ru