Важное объявление!
У Нас Все раздачи мультитрекерные, при нуле пиров в релизах, можете смело вставать на закачку!
 
Автор Сообщение

HUNTER

Стаж:
4 года 8 месяцев
Сообщений:
62003

Репутация: 101

[+] [-]
Вне форума [Профиль] [ЛС]

Топ Гир: Идеальное путешествие / Top Gear: The Perfect Road Trip
Год выпуска: 2013
Страна: Великобритания
Жанр: Автошоу
Продолжительность: 01:25:16
Перевод: профессиональный двухголосый закадровый (AlexFilm)
В ролях: Джереми Кларксон (Jeremy Clarkson), Джеймс Мэй (James May), кузен Стига из Йоркшира (Stig's Yorkshire cousin)
Описание: Приветствуем всех зрителей на очередном специальном выпуске Top Gear. Сразу же после выхода 20-го сезона, команда BBC сообщила, что как это уже заведено Top Gear порадует всех зрителей новым специальным выпуском, что и случилось в ноябре 2013 года, новый специальный выпуск называется "Top Gear - Идеальное путешествие". В этом специальном выпуске участвуют только двое ведущих, это Джерeми Кларксон и Ричард Хаммонд.
Джереми и Ричард Хаммонд расскажут нам что по их мнению "идеальное путешествие". Их цель в этом выпуске - это выбор лучшего вида транспорта для разных путешествий по Европе. Цель непростая - ведь выбор так велик. Ричард и Джереми прокатятся на 20 разных автомобилях, начиная от простых и удобных, заканчивая сложными и самыми дорогими в мире, таких как Bugatti, Lamborghini и многие другие.
Доп. информация:
Перевод: Константин Кривоногов
Монтаж и сведение звука: Сергей Мартынов
Роли озвучивали: Роман Сопко и Александр Дасевич
Качество: BDRip
Формат: AVI
Видео: XviD, 720x400 (16:9), 25.000 fps, ~1600 kbps, 0.222 bit/pixel
Аудио #1: Russian / MP3 2.0, 48 kHz, 128 kbps |Многоголосый закадровый||AlexFilm|
Аудио #2: English / MP3 2.0, 48 kHz, 128 kbps |Оригинал|

Скачать сэмпл

Сэмпл

MI

General
Complete name : O:\Top.Gear.The.Perfect.Road.Trip.2013.BDRip.Rus.Eng.AlexFilm.avi
Format : AVI
Format/Info : Audio Video Interleave
File size : 1.11 GiB
Duration : 1h 25mn
Overall bit rate : 1 869 Kbps
Writing application : VirtualDubModRus 1.5.10.2 (build 2542/release)
Writing library : VirtualDubMod build 2542/release
Video
ID : 0
Format : MPEG-4 Visual
Format profile : Advanced Simple@L5
Format settings, BVOP : 2
Format settings, QPel : Yes
Format settings, GMC : 3 warppoints
Format settings, Matrix : Default (MPEG)
Codec ID : XVID
Codec ID/Hint : XviD
Duration : 1h 25mn
Bit rate : 1 599 Kbps
Width : 720 pixels
Height : 400 pixels
Display aspect ratio : 16:9
Frame rate : 25.000 fps
Color space : YUV
Chroma subsampling : 4:2:0
Bit depth : 8 bits
Scan type : Progressive
Compression mode : Lossy
Bits/(Pixel*Frame) : 0.222
Stream size : 973 MiB (86%)
Writing library : XviD 1.2.1 (UTC 2008-12-04)
Audio #1
ID : 1
Format : MPEG Audio
Format version : Version 1
Format profile : Layer 3
Mode : Joint stereo
Mode extension : MS Stereo
Codec ID : 55
Codec ID/Hint : MP3
Duration : 1h 24mn
Bit rate mode : Constant
Bit rate : 128 Kbps
Channel(s) : 2 channels
Sampling rate : 48.0 KHz
Compression mode : Lossy
Stream size : 77.8 MiB (7%)
Alignment : Aligned on interleaves
Interleave, duration : 40 ms (1.00 video frame)
Interleave, preload duration : 504 ms
Audio #2
ID : 2
Format : MPEG Audio
Format version : Version 1
Format profile : Layer 3
Mode : Joint stereo
Mode extension : MS Stereo
Codec ID : 55
Codec ID/Hint : MP3
Duration : 1h 24mn
Bit rate mode : Constant
Bit rate : 128 Kbps
Channel(s) : 2 channels
Sampling rate : 48.0 KHz
Compression mode : Lossy
Stream size : 77.8 MiB (7%)
Alignment : Aligned on interleaves
Interleave, duration : 40 ms (1.00 video frame)
Interleave, preload duration : 504 ms

Скриншоты


_________________
Показать сообщения:    

Текущее время: Сегодня 12:08

Часовой пояс: GMT



Вы не можете начинать темы
Вы не можете отвечать на сообщения
Вы не можете редактировать свои сообщения
Вы не можете удалять свои сообщения
Вы не можете голосовать в опросах
Вы не можете прикреплять файлы к сообщениям
Вы не можете скачивать файлы
Наши партнеры: интернет магазин Ивановского трикотажа textilla.ru