Ивановский Торрент трекер
Яндекс.Погода
 

[Цитировать]
HUNTER

Тонкая нить / The Slender Thread
Страна: США
Жанр: драма
Год выпуска: 1965
Продолжительность: 01:38:26
Перевод: Профессиональный (двухголосый закадровый) - НТВ+
Cубтитры: английские
Оригинальная аудиодорожка: английский-Режиссер: Сидни Поллак / Sydney Pollack-В ролях: Сидни Пуатье, Энн Бэнкрофт, Телли Савалас, Стивен Хилл, Эдвард Эснер, , Пол Ньюлан, Дэбни Коулмен, Х. М. Вайнэнт, Роберт Ф. Хой-Описание: Это первый фильм Сидни Поллака. Дебют был настолько удачным, что сразу получил номинацию на два «Оскара» – за лучшую режиссерскую работу и лучшие костюмы. Во многом успеху этого фильма способствовал и исполнитель одной из главных ролей Сидни Пуатье, за два года до этого ставший первым чернокожим актером, получившим премию Американской киноакадемии.
«Тонкая нить» – экранизация реальной истории, описанной в журнале Life. Студент Алан Ньюэл работает в Сиэтле в городской службе психологической помощи по телефону. Однажды, когда его начальник профессиональный психолог на время уходит, ему звонит Инге Дайсон, которая сообщает, что приняла смертельную дозу снотворного, потому что больше не может выносить атмосферу, сложившуюся в семье. В задачу студента входит поддерживать с ней разговор достаточно долгое время, чтобы полиция смогла отследить, где находится умирающая. Решившую покончить с собой женщину и студента связывает тонкая нить, которая может оборваться в любую минуту…
Возможно, это один из первых фильмов, где демонстрируется, как полицейские выявляют местонахождение звонящего. С тех пор, как он был снят, технология стала куда более развитой. Здесь же полицейские отслеживают звонок практически вручную, изучая, какие переключатели находятся в каком положении на телефонной станции, и это позволяет им вычислить место, где находится девушка.
«Тонкая нить» — это сильнейший накал эмоций, который создается за счет того, что главные герои ни разу не видят, а только слышат голоса друг друга.-Релиз:
| Рип от SbR-Качество видео: BDRip | Sample
Формат видео: MKV
Видео: 1280x694 at 23.976 fps, x264@L4.1, ~8000 kbps avg
Аудио 1: Russian: 48 kHz, AC3, 2/0 (L,R) ch, ~192.00 kbps avg |Двухголосый закадровый, НТВ+ (Елена Борзунова и Александр Гаврилин)|
Аудио 2: English: 48 kHz/16-bit, FLAC 1.0, ~323.00 kbps avg-Цитата:
  • За русскую дорожку спасибо StudioRAK.

MediaInfo

Format                      : Matroska
Format version              : Version 4 / Version 2
File size                   : 5.86 GiB
Duration                    : 1h 38mn
Overall bit rate mode       : Variable
Overall bit rate            : 8 517 Kbps
Encoded date                : UTC 2016-07-28 08:51:58
Writing application         : mkvmerge v9.3.1 ('Mask Machine') 32bit
Writing library             : libebml v1.3.4 + libmatroska v1.4.5
Cover                       : Yes
Attachments                 : cover.jpg
Video
ID                          : 1
Format                      : AVC
Format/Info                 : Advanced Video Codec
Format profile              : High@L4.1
Format settings, CABAC      : Yes
Format settings, ReFrames   : 9 frames
Codec ID                    : V_MPEG4/ISO/AVC
Duration                    : 1h 38mn
Bit rate                    : 8 000 Kbps
Width                       : 1 280 pixels
Height                      : 720 pixels
Display aspect ratio        : 16:9
Frame rate mode             : Constant
Frame rate                  : 23.976 (23976/1000) fps
Color space                 : YUV
Chroma subsampling          : 4:2:0
Bit depth                   : 8 bits
Scan type                   : Progressive
Bits/(Pixel*Frame)          : 0.362
Stream size                 : 5.50 GiB (94%)
Writing library             : x264 core 148 r2705+54 9f484c1 t_mod_Custom [8-bit@all X86_64]
Encoding settings           : cabac=1 / ref=9 / deblock=1:-3:-3 / analyse=0x3:0x133 / me=umh / subme=10 / psy=1 / fade_compensate=0.00 / psy_rd=1.10:0.05 / mixed_ref=1 / me_range=32 / chroma_me=1 / trellis=2 / 8x8dct=1 / cqm=0 / deadzone=21,11 / fast_pskip=0 / chroma_qp_offset=-3 / threads=6 / lookahead_threads=1 / sliced_threads=0 / nr=0 / decimate=1 / interlaced=0 / bluray_compat=0 / constrained_intra=0 / fgo=0 / bframes=8 / b_pyramid=2 / b_adapt=2 / b_bias=0 / direct=3 / weightb=1 / open_gop=0 / weightp=2 / keyint=250 / keyint_min=23 / scenecut=40 / intra_refresh=0 / rc=2pass / mbtree=0 / bitrate=8000 / ratetol=1.0 / qcomp=0.60 / qpmin=0:0:0 / qpmax=69:69:69 / qpstep=4 / cplxblur=20.0 / qblur=0.5 / ip_ratio=1.20 / pb_ratio=1.10 / aq=3:0.65 / aq-sensitivity=10.00 / aq-factor=1.00:1.00:1.00 / aq2=1:0.60 / aq2-sensitivity=15.00 / aq2-factor=1.00:1.00:1.00 / aq3=1:[0.50:0.50]:[0.50:0.50]:[0.50:0.50]:[0.50:0.50] / aq3-sensitivity=10.00 / aq3-factor=[1.00:1.00]:[1.00:1.00]:[1.00:1.00] / aq3-boundary=192:64:24
Language                    : English
Default                     : Yes
Forced                      : No
Color range                 : Limited
Matrix coefficients         : BT.709
Audio #1
ID                          : 2
Format                      : AC-3
Format/Info                 : Audio Coding 3
Mode extension              : CM (complete main)
Format settings, Endianness : Big
Codec ID                    : A_AC3
Duration                    : 1h 38mn
Bit rate mode               : Constant
Bit rate                    : 192 Kbps
Channel(s)                  : 2 channels
Channel positions           : Front: L R
Sampling rate               : 48.0 KHz
Frame rate                  : 31.250 fps (1536 spf)
Compression mode            : Lossy
Stream size                 : 135 MiB (2%)
Title                       : Двухголосый закадровый, НТВ+ (Елена Борзунова и Александр Гаврилин)
Language                    : Russian
Default                     : Yes
Forced                      : No
Audio #2
ID                          : 3
Format                      : FLAC
Format/Info                 : Free Lossless Audio Codec
Codec ID                    : A_FLAC
Duration                    : 1h 38mn
Bit rate mode               : Variable
Bit rate                    : 323 Kbps
Channel(s)                  : 1 channel
Channel positions           : Front: C
Sampling rate               : 48.0 KHz
Frame rate                  : 11.719 fps (4096 spf)
Bit depth                   : 16 bits
Stream size                 : 228 MiB (4%)
Writing library             : libFLAC 1.2.1 (UTC 2007-09-17)
Language                    : English
Default                     : No
Forced                      : No
Text #1
ID                          : 4
Format                      : UTF-8
Codec ID                    : S_TEXT/UTF8
Codec ID/Info               : UTF-8 Plain Text
Duration                    : 1h 31mn
Bit rate                    : 49 bps
Count of elements           : 1257
Stream size                 : 33.0 KiB (0%)
Language                    : English
Default                     : No
Forced                      : No
Text #2
ID                          : 5
Format                      : UTF-8
Codec ID                    : S_TEXT/UTF8
Codec ID/Info               : UTF-8 Plain Text
Duration                    : 1h 32mn
Bit rate                    : 50 bps
Count of elements           : 1310
Stream size                 : 34.2 KiB (0%)
Language                    : English
Default                     : No
Forced                      : No
Menu
00:00:00.000                : en:00:00:00.000
00:06:46.906                : en:00:06:46.906
00:16:37.413                : en:00:16:37.413
00:24:33.305                : en:00:24:33.305
00:34:40.536                : en:00:34:40.536
00:51:50.232                : en:00:51:50.232
01:07:03.102                : en:01:07:03.102
01:25:43.513                : en:01:25:43.513

Скриншоты

Показать сообщения:    

Текущее время: 26-Сен 02:47

Часовой пояс: UTC - 1


Вы не можете начинать темы
Вы не можете отвечать на сообщения
Вы не можете редактировать свои сообщения
Вы не можете удалять свои сообщения
Вы не можете голосовать в опросах
Вы не можете прикреплять файлы к сообщениям
Вы не можете скачивать файлы

!ВНИМАНИЕ!
Сайт не предоставляет электронные версии произведений, а занимается лишь коллекционированием и каталогизацией ссылок, присылаемых и публикуемых на форуме нашими читателями. Если вы являетесь правообладателем какого-либо представленного материала и не желаете, чтобы ссылка на него находилась в нашем каталоге, свяжитесь с нами, и мы незамедлительно удалим ее. Файлы для обмена на трекере предоставлены пользователями сайта, и администрация не несет ответственности за их содержание. Просьба не заливать файлы, защищенные авторскими правами, а также файлы нелегального содержания!