Ивановский Торрент трекер
Яндекс.Погода
 

[Цитировать]
HUNTER

Том Сойер / Tom Sawyer
Страна: США
Жанр: Приключения
Продолжительность: 1:28:46
Год выпуска: 2000
Перевод: Профессиональный (многоголосый закадровый)
Русские субтитры: нет
Режиссёр: Фил Мендез (Phil Mendez), Пол Сабелла (Paul Sabella)
Роли озвучивали: Ретт Экинс
Марк Уиллс
Ли Энн Вомак
Хинден Уолш
Алисия Эллиотт
Клеа Льюис
Бетти Уайт
Дин Хэглунд
Ричард Кайнд
Описание: Постоянно прогуливая школу, избегая домашнеий работы и своей тети Полли, Том постоянно попадает в неприятности, Но настоящая проблема поджидает eго впереди, когда они с Геком Финном отправляются на поиски сокровищ и становятся свидетелями преступления. В этот момент их приключения и начинаются: путешествие по реке Миссисипи, игры в пиратов и даже присутствие на собственных похоронах.
Доп. информация: Многоголосовый закадровый перевод к этому мультфильму пролежал у меня более десяти лет, прежде чем я узнала, что он считается редким и его до сих пор нет в интернете. Поэтому я с удовольствием представляю вам эту озвучку и желаю приятного просмотра.
Видео и английская дорожка позаимствованы из раздачи AlexeyZet.
За синхронизацию - спасибо randos2009.
Исходник аудио и оцифровка - Aflame 300.
Семпл: http://multi-up.com/1069535
Качество: DVDRip
Формат: AVI
Видео: DivX, 640x464, 23.976 fps, 1715 Кбит/сек
Аудио: PCM, 48,0 КГц, 1 ch, 768 Кбит/сек, русский
Аудио 2: AC-3, 48,0 КГц, 6 ch, 448 Кбит/сек, английский
Субтитры: отсутствуют

Подробные технические данные

ОбщееПолное имя : F:\Data Base\The Films\Cartoons\Tom Sawyer\Tom Sawyer.aviФормат : AVIФормат/Информация : Audio Video InterleaveРазмер файла : 1,83 ГбайтПродолжительность : 1 ч. 28 м.Общий поток : 2945 Кбит/секПрограмма кодирования : VirtualDubMod 1.5.10.2 (build 2540/release)Библиотека кодирования : VirtualDubMod build 2540/release
ВидеоИдентификатор : 0Формат : MPEG-4 VisualПараметр BVOP формата : ДаПараметр QPel формата : НетПараметр GMC формата : Без точки переходаПараметр матрицы формата : Default (H.263)Идентификатор кодека : DX50Идентификатор кодека/Подсказка : DivX 5Продолжительность : 1 ч. 28 м.Битрейт : 1715 Кбит/секШирина : 640 пикселейВысота : 464 пикселяСоотношение сторон : 1,379Частота кадров : 23,976 кадра/секЦветовое пространство : YUVСубдискретизация насыщенности : 4:2:0Битовая глубина : 8 битТип развёртки : ПрогрессивнаяМетод сжатия : С потерямиБит/(Пиксели*Кадры) : 0.241Размер потока : 1,06 Гбайт (58%)Библиотека кодирования : DivX 5.0.2 (UTC 2002-05-16)
Аудио #1Идентификатор : 1Формат : PCMПараметр Endianness формата : LittleПараметр Sign формата : SignedИдентификатор кодека : 1Продолжительность : 1 ч. 28 м.Вид битрейта : ПостоянныйБитрейт : 768 Кбит/секКаналы : 1 каналЧастота : 48,0 КГцБитовая глубина : 16 битРазмер потока : 488 Мбайт (26%)Выравнивание : Соединение по промежуткамПродолжительность промежутка : 42 мс. (1,00 видеокадр)Время предзагрузки промежутка : 500 мс.
Аудио #2Идентификатор : 2Формат : AC-3Формат/Информация : Audio Coding 3Расширение режима : CM (complete main)Параметр Endianness формата : BigИдентификатор кодека : 2000Продолжительность : 1 ч. 28 м.Вид битрейта : ПостоянныйБитрейт : 448 Кбит/секКаналы : 6 каналовРасположение каналов : Front: L C R, Side: L R, LFEЧастота : 48,0 КГцБитовая глубина : 16 битМетод сжатия : С потерямиРазмер потока : 284 Мбайт (15%)Выравнивание : Разделение по промежуткамПродолжительность промежутка : 42 мс. (1,00 видеокадр)Время предзагрузки промежутка : 500 мс.

Скриншоты



Показать сообщения:    

Текущее время: 14-Дек 17:18

Часовой пояс: UTC ± 0


Вы не можете начинать темы
Вы не можете отвечать на сообщения
Вы не можете редактировать свои сообщения
Вы не можете удалять свои сообщения
Вы не можете голосовать в опросах
Вы не можете прикреплять файлы к сообщениям
Вы не можете скачивать файлы

!ВНИМАНИЕ!
Сайт не предоставляет электронные версии произведений, а занимается лишь коллекционированием и каталогизацией ссылок, присылаемых и публикуемых на форуме нашими читателями. Если вы являетесь правообладателем какого-либо представленного материала и не желаете, чтобы ссылка на него находилась в нашем каталоге, свяжитесь с нами, и мы незамедлительно удалим ее. Файлы для обмена на трекере предоставлены пользователями сайта, и администрация не несет ответственности за их содержание. Просьба не заливать файлы, защищенные авторскими правами, а также файлы нелегального содержания!