Важное объявление!
У Нас Все раздачи мультитрекерные, при нуле пиров в релизах, можете смело вставать на закачку!
 
Автор Сообщение

HUNTER

Стаж:
4 года 11 месяцев
Сообщений:
66019

Репутация: 101

[+] [-]
Вне форума [Профиль] [ЛС]

Том и Джерри: Потерянный дракон / Tom & Jerry: The Lost Dragon
Страна: США
Жанр: мультфильм, комедия
Продолжительность: 00:56:40
Год выпуска: 2014
Перевод: Профессиональный (многоголосый закадровый)
Русские субтитры: нет-Режиссёр: Спайк Брандт / Spike Brandt, Тони Червоне / Tony Cervone
Роли озвучивали: Келли Стейблз, Викки Льюис, Джим Каммингс, Лорейн Ньюмен, Уэйн Найт-Описание: Всеми любимая парочка — кот и мышь -вернулись в этой волшебной сказке! А вместе с ними — и песни, веселье и магия. Приключение наших героев начинается с того, что они находят странное яйцо, которое было украдено у огромного огнедышащего дракона! Вскоре из яйца вылупляется малыш Паффи и решает, что Том — это его мама. Настоящая мама-дракониха хочет вернуть своего драконёнка, но не она одна — за малышом охотится ведьма Дризельда!
С помощью волшебных союзников и зверей Тому и Джерри предстоит остановить ведьму и вернуть детёныша его маме. Вас ждёт магия, сражения и, конечно же, море веселья! Смогут ли друзья помочь героям этой сказки, будет ли у неё счастливый финал? Отправьтесь в это увлекательное путешествие всей семьёй и сами узнаете!-
Семпл: http://multi-up.com/1019342-Качество: DVDRip
Формат: AVI
Видео: 720x400 (1.80:1), 25 fps, XviD build 73, 1713 kbps avg, 0.24 bit/pixel
Аудио: 48 kHz, AC3 Dolby Digital, 2 ch, 192 kbps
Субтитры: Отсутствуют

Подробные технические данные

ОбщееComplete name : C:\Users\Пользователь\Documents\Фильмы\Tom.i.Djerri.Poteryannyi.Drakon.2014.P.DVDRip.aviFormat : AVIFormat/Info : Audio Video InterleaveFile size : 745 МбайтDuration : 54 м.Overall bit rate : 1915 Кбит/секWriting application : VirtualDubModRus 1.5.10.2 (build 2542/release)Writing library : VirtualDubMod build 2542/release
ВидеоID : 0Format : MPEG-4 VisualFormat profile : Advanced Simple@L5Format settings, BVOP : 1Format settings, QPel : НетFormat settings, GMC : Без точки переходаFormat settings, Matrix : ВыборочнаяCodec ID : XVIDCodec ID/Hint : XviDDuration : 54 м.Bit rate : 1714 Кбит/секWidth : 720 пикселейHeight : 400 пикселейDisplay aspect ratio : 16:9Frame rate : 25,000 кадров/секColor space : YUVChroma subsampling : 4:2:0Bit depth : 8 битScan type : ПрогрессивнаяCompression mode : С потерямиBits/(Pixel*Frame) : 0.238Stream size : 666 Мбайт (89%)Writing library : XviD 73
АудиоID : 1Format : AC-3Format/Info : Audio Coding 3Mode extension : CM (complete main)Format settings, Endianness : BigCodec ID : 2000Duration : 54 м.Bit rate mode : ПостоянныйBit rate : 192 Кбит/секChannel(s) : 2 каналаChannel positions : Front: L RSampling rate : 48,0 КГцBit depth : 16 битCompression mode : С потерямиStream size : 74,7 Мбайт (10%)Alignment : Разделение по промежуткамInterleave, duration : 40 мс. (1,00 видеокадр)Interleave, preload duration : 500 мс.

Скриншоты


_________________
Показать сообщения:    

Текущее время: Сегодня 04:23

Часовой пояс: GMT



Вы не можете начинать темы
Вы не можете отвечать на сообщения
Вы не можете редактировать свои сообщения
Вы не можете удалять свои сообщения
Вы не можете голосовать в опросах
Вы не можете прикреплять файлы к сообщениям
Вы не можете скачивать файлы