Ивановский Торрент трекер
Яндекс.Погода
 

[Цитировать]
HUNTER

Том и Джерри: Потерянный дракон / Tom & Jerry: The Lost Dragon
Страна: США
Жанр: Мультипликация
Продолжительность: 00:56:41
Год выпуска: 2014
Перевод: Профессиональный (многоголосый закадровый)
Русские субтитры: есть-Режиссёр: Спайк Брандт / Spike Brandt, Тони Сервоне / Tony Cervone
Роли озвучивали: Келли Стейблз, Викки Льюис, Джим Каммингс, Лорейн Ньюмен, Уэйн Найт-Описание: Всеми любимая парочка — кот и мышь -вернулись в этой волшебной сказке! А вместе с ними — и песни, веселье и магия. Приключение наших героев начинается с того, что они находят странное яйцо, которое было украдено у огромного огнедышащего дракона! Вскоре из яйца вылупляется малыш Паффи и решает, что Том — это его мама. Настоящая мама-дракониха хочет вернуть своего драконёнка, но не она одна — за малышом охотится ведьма Дризельда!-Качество: BDRemux 1080p
Формат: MKV
Видео: AVC, 1920x1080 (16:9), 23.976 fps, 17.7 Mbps (0.355 bit/pixel)
Аудио 1: AC-3, 48.0 KHz, 6 ch, 448 Kbps, CBR (Russian)
Аудио 2: DTS, 48.0 KHz, 6 ch, 1 510 Kbps, CBR (English)
Субтитры: Russian, English
Семпл: Забираем тут

Подробные технические данные

ОбщееУникальный идентификатор : 231689926499975229991819347746877698964 (0xAE4DDB5263C77856B24A325250657394)Полное имя : F:\Tom and Jerry The Lost Dragon 2014 1080p BDRemux.mkvФормат : MatroskaВерсия формата : Version 4 / Version 2Размер файла : 7,92 ГбайтПродолжительность : 56 м.Режим общего битрейта : ПеременныйОбщий поток : 20,0 Мбит/секДата кодирования : UTC 2014-10-11 11:10:52Программа кодирования : mkvmerge v7.2.0 ('On Every Street') 32bit built on Sep 13 2014 15:42:11Библиотека кодирования : libebml v1.3.0 + libmatroska v1.4.1DURATION : 00:56:41.440000000NUMBER_OF_FRAMES : 106295NUMBER_OF_BYTES : 190480640_STATISTICS_WRITING_APP : mkvmerge v7.2.0 ('On Every Street') 32bit built on Sep 13 2014 15:42:11_STATISTICS_WRITING_DATE_UTC : 2014-10-11 11:10:52_STATISTICS_TAGS : BPS DURATION NUMBER_OF_FRAMES NUMBER_OF_BYTES
ВидеоИдентификатор : 1Формат : AVCФормат/Информация : Advanced Video CodecПрофиль формата : High@L4.1Параметр CABAC формата : ДаПараметр ReFrames формата : 2 кадраИдентификатор кодека : V_MPEG4/ISO/AVCПродолжительность : 56 м.Вид битрейта : ПеременныйБитрейт : 17,7 Мбит/секШирина : 1920 пикселейВысота : 1080 пикселейСоотношение сторон : 16:9Режим частоты кадров : ПостоянныйЧастота кадров : 23,976 кадра/секЦветовое пространство : YUVСубдискретизация насыщенности : 4:2:0Битовая глубина : 8 битТип развёртки : ПрогрессивнаяБит/(Пиксели*Кадры) : 0.355Размер потока : 6,99 Гбайт (88%)Язык : EnglishDefault : ДаForced : Нет
Аудио #1Идентификатор : 2Формат : AC-3Формат/Информация : Audio Coding 3Расширение режима : CM (complete main)Параметр Endianness формата : BigИдентификатор кодека : A_AC3Продолжительность : 56 м.Вид битрейта : ПостоянныйБитрейт : 448 Кбит/секКаналы : 6 каналовРасположение каналов : Front: L C R, Side: L R, LFEЧастота : 48,0 КГцБитовая глубина : 16 битМетод сжатия : С потерямиРазмер потока : 182 Мбайт (2%)Язык : RussianDefault : ДаForced : Нет
Аудио #2Идентификатор : 3Формат : DTSФормат/Информация : Digital Theater SystemsРежим : 16Параметр Endianness формата : BigИдентификатор кодека : A_DTSПродолжительность : 56 м.Вид битрейта : ПостоянныйБитрейт : 1509 Кбит/секКаналы : 6 каналовРасположение каналов : Front: L C R, Side: L R, LFEЧастота : 48,0 КГцБитовая глубина : 24 битМетод сжатия : С потерямиРазмер потока : 612 Мбайт (8%)Язык : EnglishDefault : НетForced : Нет
Текст #1Идентификатор : 4Формат : UTF-8Идентификатор кодека : S_TEXT/UTF8Идентификатор кодека/Информация : UTF-8 Plain TextЯзык : RussianDefault : НетForced : Нет
Текст #2Идентификатор : 5Формат : UTF-8Идентификатор кодека : S_TEXT/UTF8Идентификатор кодека/Информация : UTF-8 Plain TextЯзык : EnglishDefault : НетForced : Нет

Скриншоты


Показать сообщения:    

Текущее время: 23-Окт 14:36

Часовой пояс: UTC - 1


Вы не можете начинать темы
Вы не можете отвечать на сообщения
Вы не можете редактировать свои сообщения
Вы не можете удалять свои сообщения
Вы не можете голосовать в опросах
Вы не можете прикреплять файлы к сообщениям
Вы не можете скачивать файлы

!ВНИМАНИЕ!
Сайт не предоставляет электронные версии произведений, а занимается лишь коллекционированием и каталогизацией ссылок, присылаемых и публикуемых на форуме нашими читателями. Если вы являетесь правообладателем какого-либо представленного материала и не желаете, чтобы ссылка на него находилась в нашем каталоге, свяжитесь с нами, и мы незамедлительно удалим ее. Файлы для обмена на трекере предоставлены пользователями сайта, и администрация не несет ответственности за их содержание. Просьба не заливать файлы, защищенные авторскими правами, а также файлы нелегального содержания!