Важное объявление!
У Нас Все раздачи мультитрекерные, при нуле пиров в релизах, можете смело вставать на закачку!
 
Автор Сообщение

HUNTER

Стаж:
4 года 6 месяцев
Сообщений:
60981

Репутация: 101

[+] [-]
Вне форума [Профиль] [ЛС]

Tom and Jerry's Giant Adventure / Том и Джерри: Гигантское приключение
Страна: США
Жанр: Мультипликация
Продолжительность: 00:57:07
Год выпуска: 2013
Перевод: Профессиональный (дублированный)
Русские субтитры: есть (Эmber)
Режиссёр: Спайк Брандт / Spike Brandt, Тони Сервоне / Tony Cervone
Роли озвучивали: Том Уилсон, Гаррисон Кейллор, Пол Рубенс, Грей Делайл, Иаков Бертран
Описание: Любимцы зрителей, легендарные Том и Джерри вновь оказываются втянутыми в увлекательное приключение!
На этот раз они вместе с юным Джеком возрождают известную всем сказку "Джек и волшебные бобы". Вместе они отчаянно пытаются спасти волшебный парк. Раздобыв волшебные бобы, они отправляются в путешествие, которое сулит им встречу с многими известными зрителям персонажами, такими как Спайк и Золотой гусь.
Смогут ли Том и Джерри положить конец своей извечной вражде, чтобы спасти волшебный парк? Смотрите Том и Джерри: Гигантское приключение, и узнаете!
Качество: BDRip 720p (DON)
Формат: MKV
Видео: AVC, 1280x720 (16:9), 23.976 fps, 4068 Kbps (0.180 bit/pixel)
Аудио 1: AC-3, 48.0 KHz, 2 ch, 192 Kbps, CBR (Russian)
Аудио 2: AC-3, 48.0 KHz, 6 ch, 640 Kbps, CBR (English)
Субтитры: Russian, English
Семпл: Тут

Подробные технические данные

Tom and Jerry's Giant Adventure 2013 720p BluRay DTS x264-DON

Tom and Jerry's Giant Adventure 2013 720p BluRay DTS x264-DON
RELEASE DATE......: 19/08/2013
RELEASE SIZE......: 2.22 GB
RUNTIME...........: 57m:07s
VIDEO CODEC.......: x264, CRF 15.15, L4.1
VIDEO BITRATE.....: Variable @ 4067.51 Kbps
RESOLUTION........: 1280x720 (OAR)
FRAMERATE.........: 23.976 fps
AUDIO.............: English DTS Core 5.1 @ 1.5 Mbps
SUBTITLES.........: Brazilian, Czech, Dutch, English & SDH,
French, German Forced, Greek, Slovak - SRT
CHAPTERS..........: Included (not named)
SOURCE............: 1080p Blu-ray AVC DTS-HD MA 5.1-HDCLUB
x264 [info]: frame I:952 Avg QP:10.84 size:176614
x264 [info]: frame P:23839 Avg QP:13.97 size: 38281
x264 [info]: frame B:57371 Avg QP:15.55 size: 11532
x264 [info]: consecutive B-frames: 4.7% 8.0% 12.8% 54.3% 8.8% 7.8% 3.5%
Общее
Уникальный идентификатор : 206185862429942787084225386290314809777 (0x9B1DF3E148BE5EAD9788C236142511B1)
Полное имя : F:\Tom and Jerrys giant adventure 2013 720p.mkv
Формат : Matroska
Версия формата : Version 4 / Version 2
Размер файла : 1,96 Гбайт
Продолжительность : 57 м.
Режим общего битрейта : Переменный
Общий поток : 4904 Кбит/сек
Дата кодирования : UTC 2013-08-26 13:35:00
Программа кодирования : mkvmerge v6.3.0 ('You can't stop me!') built on Jun 28 2013 20:09:41
Библиотека кодирования : libebml v1.3.0 + libmatroska v1.4.0
Видео
Идентификатор : 1
Формат : AVC
Формат/Информация : Advanced Video Codec
Профиль формата : High@L4.1
Параметр CABAC формата : Да
Параметр ReFrames формата : 9 кадров
Идентификатор кодека : V_MPEG4/ISO/AVC
Продолжительность : 57 м.
Вид битрейта : Переменный
Битрейт : 3974 Кбит/сек
Максимальный битрейт : 40,0 Мбит/сек
Ширина : 1280 пикселей
Высота : 720 пикселей
Соотношение сторон : 16:9
Режим частоты кадров : Постоянный
Частота кадров : 23,976 кадра/сек
Цветовое пространство : YUV
Субдискретизация насыщенности : 4:2:0
Битовая глубина : 8 бит
Тип развёртки : Прогрессивная
Бит/(Пиксели*Кадры) : 0.180
Размер потока : 1,59 Гбайт (81%)
Библиотека кодирования : x264 core 135 r2345kMod f0c1c53
Настройки программы : cabac=1 / ref=9 / deblock=1:-2:-2 / analyse=0x3:0x133 / me=umh / subme=10 / psy=1 / fade_compensate=0.00 / psy_rd=0.90:0.00 / mixed_ref=1 / me_range=24 / chroma_me=1 / trellis=2 / 8x8dct=1 / cqm=0 / deadzone=21,11 / fast_pskip=0 / chroma_qp_offset=-2 / threads=3 / lookahead_threads=1 / sliced_threads=0 / nr=0 / decimate=0 / interlaced=0 / bluray_compat=0 / constrained_intra=0 / bframes=6 / b_pyramid=2 / b_adapt=2 / b_bias=0 / direct=3 / weightb=1 / open_gop=0 / weightp=2 / keyint=250 / keyint_min=23 / scenecut=40 / intra_refresh=0 / rc=crf / mbtree=0 / crf=15.1500 / qcomp=0.60 / qpmin=0 / qpmax=69 / qpstep=4 / ip_ratio=1.40 / pb_ratio=1.30 / aq=1:0.80 / zones=64463,72181,crf=1
Язык : English
Default : Да
Forced : Нет
Аудио #1
Идентификатор : 2
Формат : AC-3
Формат/Информация : Audio Coding 3
Расширение режима : CM (complete main)
Параметр Endianness формата : Big
Идентификатор кодека : A_AC3
Продолжительность : 57 м.
Вид битрейта : Постоянный
Битрейт : 192 Кбит/сек
Каналы : 2 канала
Расположение каналов : Front: L R
Частота : 48,0 КГц
Битовая глубина : 16 бит
Метод сжатия : С потерями
Размер потока : 78,4 Мбайт (4%)
Заголовок : DUB
Язык : Russian
Default : Да
Forced : Нет
Аудио #2
Идентификатор : 3
Формат : AC-3
Формат/Информация : Audio Coding 3
Расширение режима : CM (complete main)
Параметр Endianness формата : Big
Идентификатор кодека : A_AC3
Продолжительность : 57 м.
Вид битрейта : Постоянный
Битрейт : 640 Кбит/сек
Каналы : 6 каналов
Расположение каналов : Front: L C R, Side: L R, LFE
Частота : 48,0 КГц
Битовая глубина : 16 бит
Метод сжатия : С потерями
Размер потока : 261 Мбайт (13%)
Язык : English
Default : Нет
Forced : Нет
Текст #1
Идентификатор : 4
Формат : UTF-8
Идентификатор кодека : S_TEXT/UTF8
Идентификатор кодека/Информация : UTF-8 Plain Text
Язык : Russian
Default : Нет
Forced : Нет
Текст #2
Идентификатор : 5
Формат : UTF-8
Идентификатор кодека : S_TEXT/UTF8
Идентификатор кодека/Информация : UTF-8 Plain Text
Язык : English
Default : Нет
Forced : Нет
Меню
00:00:00.000 : en:1.
00:12:15.000 : en:2.
00:19:54.000 : en:3.
00:29:02.000 : en:4.
00:38:33.000 : en:5.
00:50:12.000 : en:6.

Скриншоты


_________________
Показать сообщения:    

Текущее время: Сегодня 04:52

Часовой пояс: GMT



Вы не можете начинать темы
Вы не можете отвечать на сообщения
Вы не можете редактировать свои сообщения
Вы не можете удалять свои сообщения
Вы не можете голосовать в опросах
Вы не можете прикреплять файлы к сообщениям
Вы не можете скачивать файлы
Наши партнеры: интернет магазин Ивановского трикотажа textilla.ru