Ивановский Торрент трекер
Яндекс.Погода
 

[Цитировать]
mihis

Том и Джерри: Гигантское приключение / Tom and Jerry's Giant Adventure
Год выпуска: 2013
Страна: США, Warner Bros
Жанр: Фантастика, комедия, мультфильм, полнометражный
Продолжительность: 00:57:07
Перевод: Профессиональный (полное дублирование) Лицензия + Оригинал
Субтитры: Русские, английские
Режиссер: Спайк Брандт, Тони Сервоне
В ролях: Том Уилсон, Гаррисон Кейллор, Пол Рубенс, Грей Делайл, Иаков Бертран
Описание: Любимцы зрителей, легендарные Том и Джерри вновь оказываются втянутыми в увлекательное приключение! На этот раз они вместе с юным Джеком возрождают известную всем сказку "Джек и волшебные бобы". Вместе они отчаянно пытаются спасти волшебный парк. Раздобыв волшебные бобы, они отправляются в путешествие, которое сулит им встречу с многими известными зрителям персонажами, такими как Спайк и Золотой гусь. Смогут ли Том и Джерри положить конец своей извечной вражде, чтобы спасти волшебный парк? Смотрите Том и Джерри: Гигантское приключение, и узнаете!

Качество: BDRip-AVC
Формат: MKV
Видео кодек: H.264
Аудио кодек: AC3
Видео: AVC, 1024x576 (16:9), 23.976 fps, 1 800 Kbps (0.127 bit/pixel)
Аудио #1: AC3 Dolby Digital, 48.0 KHz, 2 ch, 192 Kbps, CBR Dub
Аудио #2: AC3, 48.0 KHz, 6 ch, 448 Kbps, CBR Eng

MediaInfo

Общее
Уникальный идентификатор : 183129004679309070912876427289477585288 (0x89C55D0674E9260F82CCDE9ACDC51988)
Полное имя : D:\Video\Tom.i.Jerri-Gigantskoe.priklyuchenie.2013.BDRip.(AVC)-MediaClub.mkv
Формат : Matroska
Версия формата : Version 4 / Version 2
Размер файла : 998 Мбайт
Продолжительность : 57 м.
Общий поток : 2442 Кбит/сек
Название фильма : -=MediaClub-kaspr=-
Дата кодирования : UTC 2013-08-17 10:16:35
Программа кодирования : mkvmerge v6.3.0 ('You can't stop me!') built on Jul 19 2013 16:27:38
Библиотека кодирования : libebml v1.3.0 + libmatroska v1.4.1
Видео
Идентификатор : 1
Формат : AVC
Формат/Информация : Advanced Video Codec
Профиль формата : High@L4.1
Параметр CABAC формата : Да
Параметр ReFrames формата : 9 кадров
Идентификатор кодека : V_MPEG4/ISO/AVC
Продолжительность : 57 м.
Битрейт : 1800 Кбит/сек
Ширина : 1024 пикселя
Высота : 576 пикселей
Соотношение сторон : 16:9
Режим частоты кадров : Постоянный
Частота кадров : 23,976 кадра/сек
Цветовое пространство : YUV
Субдискретизация насыщенности : 4:2:0
Битовая глубина : 8 бит
Тип развёртки : Прогрессивная
Бит/(Пиксели*Кадры) : 0.127
Размер потока : 717 Мбайт (72%)
Заголовок : -=MediaClub-kaspr=-
Библиотека кодирования : x264 core 133 r2334 a3ac64b
Настройки программы : cabac=1 / ref=9 / deblock=1:-3:-3 / analyse=0x3:0x133 / me=umh / subme=11 / psy=1 / psy_rd=1.00:0.20 / mixed_ref=1 / me_range=48 / chroma_me=1 / trellis=2 / 8x8dct=1 / cqm=0 / deadzone=21,11 / fast_pskip=0 / chroma_qp_offset=-3 / threads=12 / lookahead_threads=3 / sliced_threads=0 / nr=0 / decimate=0 / interlaced=0 / bluray_compat=0 / constrained_intra=0 / bframes=10 / b_pyramid=2 / b_adapt=2 / b_bias=0 / direct=3 / weightb=1 / open_gop=0 / weightp=2 / keyint=230 / keyint_min=22 / scenecut=40 / intra_refresh=0 / rc=2pass / mbtree=0 / bitrate=1800 / ratetol=1.0 / qcomp=0.60 / qpmin=0 / qpmax=69 / qpstep=4 / cplxblur=20.0 / qblur=0.5 / ip_ratio=1.40 / pb_ratio=1.30 / aq=1:1.00
Default : Да
Forced : Нет
Аудио #1
Идентификатор : 2
Формат : AC-3
Формат/Информация : Audio Coding 3
Профиль формата : Dolby Digital
Расширение режима : CM (complete main)
Параметр Endianness формата : Big
Идентификатор кодека : A_AC3
Продолжительность : 57 м.
Вид битрейта : Постоянный
Битрейт : 192 Кбит/сек
Каналы : 2 канала
Расположение каналов : Front: L R
Частота : 48,0 КГц
Битовая глубина : 16 бит
Метод сжатия : С потерями
Размер потока : 78,4 Мбайт (8%)
Заголовок : Дубляж
Язык : Russian
Default : Да
Forced : Да
Аудио #2
Идентификатор : 3
Формат : AC-3
Формат/Информация : Audio Coding 3
Расширение режима : CM (complete main)
Параметр Endianness формата : Big
Идентификатор кодека : A_AC3
Продолжительность : 57 м.
Вид битрейта : Постоянный
Битрейт : 448 Кбит/сек
Каналы : 6 каналов
Расположение каналов : Front: L C R, Side: L R, LFE
Частота : 48,0 КГц
Битовая глубина : 16 бит
Метод сжатия : С потерями
Размер потока : 183 Мбайт (18%)
Заголовок : Оригинал
Язык : English
Default : Нет
Forced : Нет
Текст #1
Идентификатор : 4
Формат : UTF-8
Идентификатор кодека : S_TEXT/UTF8
Идентификатор кодека/Информация : UTF-8 Plain Text
Язык : Russian
Default : Нет
Forced : Нет
Текст #2
Идентификатор : 5
Формат : UTF-8
Идентификатор кодека : S_TEXT/UTF8
Идентификатор кодека/Информация : UTF-8 Plain Text
Язык : English
Default : Нет
Forced : Нет
Меню
00:00:00.000 : en:Chapter 01
00:12:17.945 : en:Chapter 02
00:19:56.278 : en:Chapter 03
00:29:04.743 : en:Chapter 04
00:38:35.354 : en:Chapter 05
00:50:14.636 : en:Chapter 06


Показать сообщения:    

Текущее время: 12-Дек 06:48

Часовой пояс: UTC ± 0


Вы не можете начинать темы
Вы не можете отвечать на сообщения
Вы не можете редактировать свои сообщения
Вы не можете удалять свои сообщения
Вы не можете голосовать в опросах
Вы не можете прикреплять файлы к сообщениям
Вы не можете скачивать файлы

!ВНИМАНИЕ!
Сайт не предоставляет электронные версии произведений, а занимается лишь коллекционированием и каталогизацией ссылок, присылаемых и публикуемых на форуме нашими читателями. Если вы являетесь правообладателем какого-либо представленного материала и не желаете, чтобы ссылка на него находилась в нашем каталоге, свяжитесь с нами, и мы незамедлительно удалим ее. Файлы для обмена на трекере предоставлены пользователями сайта, и администрация не несет ответственности за их содержание. Просьба не заливать файлы, защищенные авторскими правами, а также файлы нелегального содержания!