Ивановский Торрент трекер
Яндекс.Погода
 

[Цитировать]
HUNTER

Томми / Tommy
Страна: Швеция
Студия: Tordenfilm AS
Жанр: триллер
Год выпуска: 2014
Продолжительность: 01:33:47
Перевод 1: одноголосый закадровый /ViruseProject/
Перевод 2: одноголосый закадровый /Doctor_Joker/
Cубтитры: русские /Кирилл Шантыко/
Оригинальная аудиодорожка: шведский
Режиссер: Тарик Салех / Tarik Saleh
В ролях: Муа Гаммель /Moa Gammel/, Ликке Ли /Lykke Li/, Ола Рапас /Ola Rapace/, Алексей Манвелов /Alexej Manvelov/, Йохан Рабеус /Johan Rabaeus/, Инес Букнер /Inez Buckner/, Эва Фрёлинг /Ewa Froling/, Ингела Ольссон /Ingela Olsson/, Александр Стокс /Alexander Stocks/, Аззан Джек /Azzan Jack/, Аманда Оомс /Amanda Ooms/, Махмут Сувакси /Mahmut Suvakci/
Описание:Неделя до Рождества. Эстель приземляется в аэропорту Стокгольма «Арланда». Годом ранее, она подалась в бега вместе с мужем Томми и их дочерью после того, как Томми принял участие в одном из крупнейших ограблений за всю историю Швеции. Эстель находит старых подельников Томми и утверждает, что он возвращается, чтобы вернуть свою долю добычи. Этот слух распространяется, как лесной пожар, по всему преступному миру Стокгольма. Если Томми вернется, город содрогнется от взрывов. И даже если нет... может произойти нечто еще более ужасное.
Томми - это история женщины, которая стоит за не столько за спиной мужчины, сколько за его именем и репутацией. Современная легенда о возвращении Королевы в город, который сгорел во время её отсутствия. История о двух сестрах, двух матерях, трех дочерях и их мужчинах.
Доп. информация:
КиноПоиск
IMDb
Осторожно. В дорожке от Doctor_Joker содержится ненормативная лексика.
Сэмпл: http://multi-up.com/988887
Тип релиза: BDRip 720p
Контейнер: MKV
Видео: Видео: MPEG-4 AVC Video / 5160 kbps / 1280x688 / 24.000 fps / High Profile 4.1
Аудио 1: Russian / AC3 / 2.0 / 48 kHz / 192 kbps
Аудио 2: Russian / AC3 / 2.0 / 48 kHz / 192 kbps
Аудио 3: Swedish / DTS / 5.1 / 48 kHz / 1536 kbps
Формат субтитров: softsub (SRT)

MediaInfo

Уникальный идентификатор : 240100545041809821782214611611420128203 (0xB4A1AED4E4500F64A1782BC91AF6F3CB)
Полное имя : d:\Tommy.2014.720p.BluRay.x264-iMSORNY.RUS.mkv
Формат : Matroska
Версия формата : Version 2
Размер файла : 4,62 Гбайт
Продолжительность : 1 ч. 33 м.
Общий поток : 7056 Кбит/сек
Дата кодирования : UTC 2014-07-27 12:08:19
Программа кодирования : mkvmerge v5.4.0 ('Piper') built on Mar 10 2012 13:34:39
Библиотека кодирования : libebml v1.2.3 + libmatroska v1.3.0
Видео
Идентификатор : 1
Формат : AVC
Формат/Информация : Advanced Video Codec
Профиль формата : High@L4.1
Параметр CABAC формата : Да
Параметр ReFrames формата : 5 кадров
Идентификатор кодека : V_MPEG4/ISO/AVC
Продолжительность : 1 ч. 33 м.
Битрейт : 5160 Кбит/сек
Ширина : 1280 пикселей
Высота : 688 пикселей
Соотношение сторон : 1,85:1
Режим частоты кадров : Постоянный
Частота кадров : 24,000 кадра/сек
Цветовое пространство : YUV
Субдискретизация насыщенности : 4:2:0
Битовая глубина : 8 бит
Тип развёртки : Прогрессивная
Бит/(Пиксели*Кадры) : 0.244
Размер потока : 3,29 Гбайт (71%)
Заголовок : Tommy.2014.720p.BluRay.x264-iMSORNY.RUS.keastwood
Библиотека кодирования : x264 core 142 r2431kMod ac76440
Настройки программы : cabac=1 / ref=5 / deblock=1:0:0 / analyse=0x3:0x133 / me=umh / subme=7 / psy=1 / fade_compensate=0.00 / psy_rd=1.00:0.00 / mixed_ref=1 / me_range=16 / chroma_me=1 / trellis=1 / 8x8dct=1 / cqm=0 / deadzone=21,11 / fast_pskip=0 / chroma_qp_offset=-2 / threads=18 / lookahead_threads=3 / sliced_threads=0 / nr=0 / decimate=1 / interlaced=0 / bluray_compat=0 / constrained_intra=0 / fgo=0 / bframes=3 / b_pyramid=2 / b_adapt=2 / b_bias=0 / direct=3 / weightb=1 / open_gop=0 / weightp=2 / keyint=250 / keyint_min=24 / scenecut=40 / intra_refresh=0 / rc_lookahead=50 / rc=2pass / mbtree=1 / bitrate=5160 / ratetol=1.0 / qcomp=0.60 / qpmin=0 / qpmax=69 / qpstep=4 / cplxblur=20.0 / qblur=0.5 / ip_ratio=1.40 / aq=1:1.00
Язык : Swedish
Default : Да
Forced : Нет
Аудио #1
Идентификатор : 2
Формат : AC-3
Формат/Информация : Audio Coding 3
Расширение режима : CM (complete main)
Параметр Endianness формата : Big
Идентификатор кодека : A_AC3
Продолжительность : 1 ч. 33 м.
Вид битрейта : Постоянный
Битрейт : 192 Кбит/сек
Каналы : 2 канала
Расположение каналов : Front: L R
Частота : 48,0 КГц
Битовая глубина : 16 бит
Метод сжатия : С потерями
Размер потока : 129 Мбайт (3%)
Заголовок : ViruseProject
Язык : Russian
Default : Да
Forced : Нет
Аудио #2
Идентификатор : 3
Формат : AC-3
Формат/Информация : Audio Coding 3
Расширение режима : CM (complete main)
Параметр Endianness формата : Big
Идентификатор кодека : A_AC3
Продолжительность : 1 ч. 33 м.
Вид битрейта : Постоянный
Битрейт : 192 Кбит/сек
Каналы : 2 канала
Расположение каналов : Front: L R
Частота : 48,0 КГц
Битовая глубина : 16 бит
Метод сжатия : С потерями
Размер потока : 129 Мбайт (3%)
Заголовок : Doctor_Joker
Язык : Russian
Default : Нет
Forced : Нет
Аудио #3
Идентификатор : 4
Формат : DTS
Формат/Информация : Digital Theater Systems
Режим : 16
Параметр Endianness формата : Big
Идентификатор кодека : A_DTS
Продолжительность : 1 ч. 33 м.
Вид битрейта : Постоянный
Битрейт : 1509 Кбит/сек
Каналы : 6 каналов
Расположение каналов : Front: L C R, Side: L R, LFE
Частота : 48,0 КГц
Битовая глубина : 24 бит
Метод сжатия : С потерями
Размер потока : 1012 Мбайт (21%)
Язык : Swedish
Default : Нет
Forced : Нет
Текст
Идентификатор : 5
Формат : UTF-8
Идентификатор кодека : S_TEXT/UTF8
Идентификатор кодека/Информация : UTF-8 Plain Text
Заголовок : Кирилл Шантыко
Язык : Russian
Default : Нет
Forced : Нет

Скриншоты

Показать сообщения:    

Текущее время: 19-Сен 19:49

Часовой пояс: UTC - 1


Вы не можете начинать темы
Вы не можете отвечать на сообщения
Вы не можете редактировать свои сообщения
Вы не можете удалять свои сообщения
Вы не можете голосовать в опросах
Вы не можете прикреплять файлы к сообщениям
Вы не можете скачивать файлы

!ВНИМАНИЕ!
Сайт не предоставляет электронные версии произведений, а занимается лишь коллекционированием и каталогизацией ссылок, присылаемых и публикуемых на форуме нашими читателями. Если вы являетесь правообладателем какого-либо представленного материала и не желаете, чтобы ссылка на него находилась в нашем каталоге, свяжитесь с нами, и мы незамедлительно удалим ее. Файлы для обмена на трекере предоставлены пользователями сайта, и администрация не несет ответственности за их содержание. Просьба не заливать файлы, защищенные авторскими правами, а также файлы нелегального содержания!