Ивановский Торрент трекер
Яндекс.Погода
 

[Цитировать]
HUNTER

Токийские эсперы / Tokyo ESP- Страна: Япония
Год выпуска: 2014 г.
Жанр: приключения
Тип: TV
Продолжительность: >12 эп. по 25 мин
Режиссер: Такаянаги Сигэхито
Студия: Xebec-Описание: В далёкой-предалёкой Японии жила была девочка. И была она бедной-пребедной.
Жила она с отцом, бывшим полицейским, и работала в кафе официанткой, пока, однажды, не увидела в небе над городом летающего пингвина, гнавшегося за стаей эфирных рыбок. Летающие пингвины, естественно, встречаются не часто и за них могут отстегнуть хорошие деньги, так что, не долго думая, она решила его поймать... Вот только дело это у неё не заладилось и одна из рыб прошла через нашу героиню, пробудив в ней сверхъестественную силу. А дальше закрутилось...-Качество: HDTVRip
Тип релиза: Без хардсаба
Формат видео: mp4
Релиз/Автор рипа: Leopard-Raws-Видео: H264, 2 874 Kbps, 1280x720, 23.976 fps, 8 bit
Аудио: JAP, AAC, 192 kbps, 48000 Hz, 2ch;
Субтитры: ASS, внешние; Язык субтитров русский; Перевод команды: HSTeam
L Перевод: Chirito
Редактура: IIIu6ko
Субтитры 2: ASS, внешние; Язык субтитров русский; Перевод команды: Dreamers Team
L Перевод: Hige-san
Подробные тех. данные
GeneralComplete name : D:\[Leopard-Raws] Tokyo ESP - 01 RAW (MX 1280x720 x264 AAC).mp4Format : MPEG-4Format profile : Base MediaCodec ID : isomFile size : 538 MiBDuration : 24mn 29sOverall bit rate mode : VariableOverall bit rate : 3 070 KbpsEncoded date : UTC 2014-07-11 20:23:52Tagged date : UTC 2014-07-11 20:23:52
VideoID : 1Format : AVCFormat/Info : Advanced Video CodecFormat profile : High@L4.1Format settings, CABAC : YesFormat settings, ReFrames : 4 framesCodec ID : avc1Codec ID/Info : Advanced Video CodingDuration : 24mn 29sBit rate : 2 874 KbpsMaximum bit rate : 25.8 MbpsWidth : 1 280 pixelsHeight : 720 pixelsDisplay aspect ratio : 16:9Frame rate mode : ConstantFrame rate : 23.976 fpsColor space : YUVChroma subsampling : 4:2:0Bit depth : 8 bitsScan type : ProgressiveBits/(Pixel*Frame) : 0.130Stream size : 504 MiB (94%)Title : 264:fps=23.976@GPAC0.5.1-DEV-rev4283Writing library : x264 core 129 r2245+729M 1a52e03Encoding settings : cabac=1 / ref=4 / deblock=1:1:-1 / analyse=0x3:0x113 / me=umh / subme=9 / psy=1 / fade_compensate=0.00 / psy_rd=1.00:0.00 / mixed_ref=1 / me_range=24 / chroma_me=1 / trellis=2 / 8x8dct=1 / cqm=0 / deadzone=21,11 / fast_pskip=1 / chroma_qp_offset=-2 / threads=8 / lookahead_threads=1 / sliced_threads=0 / nr=0 / decimate=1 / interlaced=0 / bluray_compat=0 / constrained_intra=0 / fgo=0 / bframes=9 / b_pyramid=2 / b_adapt=2 / b_bias=0 / direct=1 / weightb=1 / open_gop=0 / weightp=2 / keyint=240 / keyint_min=24 / scenecut=40 / intra_refresh=0 / rc=crf / mbtree=0 / crf=18.0 / qcomp=0.72 / qpmin=0 / qpmax=69 / qpstep=4 / ip_ratio=1.40 / pb_ratio=1.30 / aq=1:0.85Encoded date : UTC 2014-07-11 20:23:52Tagged date : UTC 2014-07-11 20:23:56Color primaries : BT.709Transfer characteristics : BT.709Matrix coefficients : BT.709
AudioID : 2Format : AACFormat/Info : Advanced Audio CodecFormat profile : LCCodec ID : 40Duration : 24mn 29sBit rate mode : VariableBit rate : 192 KbpsMaximum bit rate : 220 KbpsChannel(s) : 2 channelsChannel positions : Front: L RSampling rate : 48.0 KHzCompression mode : LossyStream size : 33.6 MiB (6%)Language : JapaneseEncoded date : UTC 2014-07-11 17:31:25Tagged date : UTC 2014-07-11 20:23:56
Список эпизодов
01 - Белая девушка
Скриншоты
Показать сообщения:    

Текущее время: 26-Сен 13:46

Часовой пояс: UTC - 1


Вы не можете начинать темы
Вы не можете отвечать на сообщения
Вы не можете редактировать свои сообщения
Вы не можете удалять свои сообщения
Вы не можете голосовать в опросах
Вы не можете прикреплять файлы к сообщениям
Вы не можете скачивать файлы

!ВНИМАНИЕ!
Сайт не предоставляет электронные версии произведений, а занимается лишь коллекционированием и каталогизацией ссылок, присылаемых и публикуемых на форуме нашими читателями. Если вы являетесь правообладателем какого-либо представленного материала и не желаете, чтобы ссылка на него находилась в нашем каталоге, свяжитесь с нами, и мы незамедлительно удалим ее. Файлы для обмена на трекере предоставлены пользователями сайта, и администрация не несет ответственности за их содержание. Просьба не заливать файлы, защищенные авторскими правами, а также файлы нелегального содержания!