Ивановский Торрент трекер
Яндекс.Погода
 

[Цитировать]
HUNTER

Токийские эсперы / Tokyo ESP / 東京ESP
Страна: Япония
Год выпуска: 2014 г.
Жанр: приключения, фантастика, мистика
Тип: TV
Продолжительность: TV (12 эп.), ~25 мин.
Режиссер: Такаянаги Сигэхито
Студия: Xebec
-
Описание: В далёкой-предалёкой Японии жила была девочка. И была она бедной-пребедной. Жила она с отцом, бывшим полицейским, и работала в кафе официанткой, пока, однажды, не увидела в небе над городом летающего пингвина, гнавшегося за стаей эфирных рыбок. Летающие пингвины, естественно, встречаются не часто и за них могут отстегнуть хорошие деньги, так что, не долго думая, она решила его поймать... Вот только дело это у неё не заладилось и одна из рыб прошла через нашу героиню, пробудив в ней сверхъестественную силу. А дальше закрутилось...
-
Качество: WEBRip
Тип релиза: Без хардсаба
Формат видео: mp4
Релиз/Автор рипа: mcag
Видео: h264, 1920x1080, 3 072 Kbps, 23.976 fps, 8bit
Аудио: AAC, 128 Kbps, 44.1 KHz, 2ch Язык: Японский
-
Субтитры: внешние, .ass, Язык: русский ; Перевод: ОМГ-Сабы
Перевод и оформление: Zool
Редактура: Crisalide
-
Список эпизодов
1. Акт первый: Беловласая
СкриншотыПодробные тех. данные
MediaInfo:
General
Complete name                            : E:\Torrents\Tokyo ESP [1080p]\[mcag] Tokyo ESP - 01 [1080p].mp4
Format                                   : MPEG-4
Format profile                           : Base Media
Codec ID                                 : isom
File size                                : 551 MiB
Duration                                 : 24mn 9s
Overall bit rate mode                    : Variable
Overall bit rate                         : 3 190 Kbps
Encoded date                             : UTC 2014-07-11 20:39:35
Tagged date                              : UTC 2014-07-11 20:39:35
Video
ID                                       : 1
Format                                   : AVC
Format/Info                              : Advanced Video Codec
Format profile                           : High@L4.0
Format settings, CABAC                   : Yes
Format settings, ReFrames                : 4 frames
Codec ID                                 : avc1
Codec ID/Info                            : Advanced Video Coding
Duration                                 : 24mn 9s
Bit rate                                 : 3 072 Kbps
Maximum bit rate                         : 13.1 Mbps
Width                                    : 1 920 pixels
Height                                   : 1 080 pixels
Display aspect ratio                     : 16:9
Frame rate mode                          : Constant
Frame rate                               : 23.976 fps
Color space                              : YUV
Chroma subsampling                       : 4:2:0
Bit depth                                : 8 bits
Scan type                                : Progressive
Bits/(Pixel*Frame)                       : 0.062
Stream size                              : 529 MiB (96%)
Writing library                          : x264 core 120 r2120 0c7dab9
Encoding settings                        : cabac=1 / ref=4 / deblock=1:1:1 / analyse=0x3:0x113 / me=umh / subme=8 / psy=1 / psy_rd=0.40:0.00 / mixed_ref=1 / me_range=16 / chroma_me=1 / trellis=1 / 8x8dct=1 / cqm=0 / deadzone=21,11 / fast_pskip=1 / chroma_qp_offset=-2 / threads=8 / sliced_threads=0 / nr=0 / decimate=1 / interlaced=0 / bluray_compat=0 / constrained_intra=0 / bframes=3 / b_pyramid=2 / b_adapt=2 / b_bias=0 / direct=3 / weightb=1 / open_gop=0 / weightp=2 / keyint=250 / keyint_min=23 / scenecut=40 / intra_refresh=0 / rc_lookahead=50 / rc=2pass / mbtree=1 / bitrate=3072 / ratetol=1.0 / qcomp=0.60 / qpmin=0 / qpmax=69 / qpstep=4 / cplxblur=20.0 / qblur=0.5 / vbv_maxrate=6144 / vbv_bufsize=15360 / nal_hrd=none / ip_ratio=1.40 / aq=1:0.60
Encoded date                             : UTC 2014-07-11 20:39:35
Tagged date                              : UTC 2014-07-11 20:39:56
Audio
ID                                       : 2
Format                                   : AAC
Format/Info                              : Advanced Audio Codec
Format profile                           : LC
Codec ID                                 : 40
Duration                                 : 24mn 9s
Bit rate mode                            : Variable
Bit rate                                 : 128 Kbps
Maximum bit rate                         : 138 Kbps
Channel(s)                               : 2 channels
Channel positions                        : Front: L R
Sampling rate                            : 44.1 KHz
Compression mode                         : Lossy
Stream size                              : 22.1 MiB (4%)
Encoded date                             : UTC 2014-07-11 20:39:45
Tagged date                              : UTC 2014-07-11 20:39:56
Отличия


Показать сообщения:    

Текущее время: 13-Дек 16:58

Часовой пояс: UTC ± 0


Вы не можете начинать темы
Вы не можете отвечать на сообщения
Вы не можете редактировать свои сообщения
Вы не можете удалять свои сообщения
Вы не можете голосовать в опросах
Вы не можете прикреплять файлы к сообщениям
Вы не можете скачивать файлы

!ВНИМАНИЕ!
Сайт не предоставляет электронные версии произведений, а занимается лишь коллекционированием и каталогизацией ссылок, присылаемых и публикуемых на форуме нашими читателями. Если вы являетесь правообладателем какого-либо представленного материала и не желаете, чтобы ссылка на него находилась в нашем каталоге, свяжитесь с нами, и мы незамедлительно удалим ее. Файлы для обмена на трекере предоставлены пользователями сайта, и администрация не несет ответственности за их содержание. Просьба не заливать файлы, защищенные авторскими правами, а также файлы нелегального содержания!