Ивановский Торрент трекер
Яндекс.Погода
 

[Цитировать]
HUNTER

Товарищ комендант
Год выпуска: 2010
Страна: Россия
Жанр: документальный сериал
Продолжительность: 6 серий по 39 мин
Перевод: Не требуется
Русские субтитры: нет
Режиссер: Андрей Стволинский, Константин Захаров
Описание: Цикл фильмов «Товарищ комендант» расскажет о людях, которые служили Родине далеко за ее пределами. Речь пойдет о первых советских военных комендантах. Кто они? Как сложились их судьбы? В этой истории зритель увидит пример истинного патриотизма и стремления выполнить свой долг, беззаветно служить Отечеству
Сэмпл: http://www.sendspace.com/file/hp6u0i
качество: DVB
формат: MPG
Видео: MPEG Video, аноморф. 720х576, 4:3, 1795 Кбит/сек, 25 fps
Аудио: MP2, 160 Кбит/сек, 48 КГц, 2 канала

Список выпусков/серий

1 серия - Комендант Кремля
Он выбирал квартиры для членов правительства и реквизировал ценности из кремлевских монастырей. Он отвечал за безопасность Ленина и лично расстрелял убийцу Ильича Фани Каплан.
Павел Мальков - первый советский комендант Кремля. Что же скрывали высокие стены Кремля в ленинскую эпоху?
Мальков молчал об этом долгие годы в сталинских лагерях. И заговорил только перед смертью. Откровения людей, лично знакомых с Павлом Мальковым, заявления военных историков, а также уникальное интервью первого коменданта Кремля - в документальном фильме «Комендант Кремля».
2 серия - Комендант Берлина
Его судьба не раз висела на волоске. Доносы. Ранения. Война. Но он был непобедим. Герой Советского Союза, генерал-полковник Николай Берзарин разработал план взятия ставки Гитлера.
Стал первым советским комендантом Берлина. А погиб в банальном ДТП, когда все вокруг уже праздновали победу над фашистской Германий. Эта трагедия произошла 65 лет назад, но до сих пор нет однозначного ответа на вопрос, что же все-таки это было на самом деле – несчастный случай или убийство?
Новые свидетели и факты, показания очевидцев и наше собственное расследование – в документальном фильме «Комендант Берлина».
3 серия - Комендант Прибалтики
Его называли военным комендантом Прибалтики.
Он командовал советской авиацией и учил летать сына Сталина. Генерал Александр Локтионов - человек из Дома на Набережной. Крупный военачальник, храбрый воин. В первые дни войны его расстреляли под Куйбышевым.
В чем же провинился красный комендант? Мнения военных историков, обнародование секретных архивов, воспоминания потомков опального генерала - в документальном фильме «Комендант Прибалтики».
4 серия - Комендант Порт-Артура
«Анатолий Стессель – комендант Порт-Артура, предательски сдал крепость», - так написано в учебниках истории. Но был ли Стессель и в самом деле предателем? Да и был ли он комендантом Порт-Артура?
Парадокс - когда страна стояла на пороге русско-японской войны, на самом важном рубеже сложилось двоевластие: генерал Анатолий Стессель командовал Квантунским укрепрайоном, прилегающим к Порт-Артуру, и не желал терять свое влияние в крепости. Фактический комендант Порт-Артура, генерал Константин Смирнов, так и не сумел наладить военное командование. Поражение в русско-японской войне болью отозвалось в сердцах людей.
Как противостояние двух генералов, двух комендантов повлияло на историческую летопись России?
Вся правда - в документальном фильме «Комендант Порт-Артура».
5 серия - Комендант Вены
Послевоенную Вену называли шпионским центром Европы. Город был поделен на четыре сектора: советский, английский, американский и французский. При внешнем благополучии между ними разворачивалась настоящая шпионская война. Укрепить советское влияние и не потерять доверие австрийцев должен был комендант Никита Лебеденко.
6 серия - Комендант Кабула
Гвардии полковник в отставке Юрий Иванович Двугрошев стал первым комендантом Кабула после взятия его советскими войсками в 1978 году. Он отвечал не только за дислокацию советских военных частей, но должен был держать под контролем весь мятежный город. Ему доверена была охрана нового президента Б. Кармаля и он, один из немногих, с самого начала знал об истинных планах советского правительства в Афганистане

MediaInfo

ОбщееПолное имя : Comrade commander\Comrade commander. The commandant of the Kremlin. part 1.mpegФормат : MPEG-PSРазмер файла : 547 МбайтПродолжительность : 38 м.Режим общего битрейта : ПеременныйОбщий поток : 1995 Кбит/сек
ВидеоИдентификатор : 224 (0xE0)Формат : MPEG VideoВерсия формата : Version 2Профиль формата : Main@MainПараметр BVOP формата : ДаПараметр матрицы формата : ВыборочнаяПродолжительность : 38 м.Вид битрейта : ПеременныйБитрейт : 1795 Кбит/секМаксимальный битрейт : 3568 Кбит/секШирина : 720 пикселейВысота : 576 пикселейСоотношение сторон : 4:3Частота кадров : 25,000 кадров/секСтандарт вещания : PALЦветовое пространство : YUVСубдискретизация насыщенности : 4:2:0Битовая глубина : 8 битТип развёртки : ЧересстрочнаяПорядок развёртки : Верхнее поле первоеМетод сжатия : С потерямиБит/(Пиксели*Кадры) : 0.173Размер потока : 492 Мбайт (90%)
АудиоИдентификатор : 192 (0xC0)Формат : MPEG AudioВерсия формата : Version 1Профиль формата : Layer 2Продолжительность : 38 м.Вид битрейта : ПостоянныйБитрейт : 160 Кбит/секКаналы : 2 каналаЧастота : 48,0 КГцМетод сжатия : С потерямиЗадержка видео : -40 мс.Размер потока : 43,9 Мбайт (8%)

Скриншоты

Показать сообщения:    

Текущее время: 22-Окт 23:21

Часовой пояс: UTC - 1


Вы не можете начинать темы
Вы не можете отвечать на сообщения
Вы не можете редактировать свои сообщения
Вы не можете удалять свои сообщения
Вы не можете голосовать в опросах
Вы не можете прикреплять файлы к сообщениям
Вы не можете скачивать файлы

!ВНИМАНИЕ!
Сайт не предоставляет электронные версии произведений, а занимается лишь коллекционированием и каталогизацией ссылок, присылаемых и публикуемых на форуме нашими читателями. Если вы являетесь правообладателем какого-либо представленного материала и не желаете, чтобы ссылка на него находилась в нашем каталоге, свяжитесь с нами, и мы незамедлительно удалим ее. Файлы для обмена на трекере предоставлены пользователями сайта, и администрация не несет ответственности за их содержание. Просьба не заливать файлы, защищенные авторскими правами, а также файлы нелегального содержания!