Важное объявление!
У Нас Все раздачи мультитрекерные, при нуле пиров в релизах, можете смело вставать на закачку!
Статистика раздачи
Размер:     |    Зарегистрирован:     |    Скачан:     |   
Нет
 
     
 
 
Автор Сообщение

HUNTER

Стаж:
5 лет
Сообщений:
67910

Репутация: 101

[+] [-]
Вне форума [Профиль] [ЛС]

-
Год выпуска: 2014
Страна: Япония
Жанр: фантастика, меха
Продолжительность: ТВ-сериал, 13 эп. по 24 мин.
Выпуск: c 06.01.2014 по 31.03.2014-Перевод:
  • русские субтитры от Buka63 & DJATOM (полные/вспомогательные)
-Режиссер: Танабэ Ясухиро
Студия: Sunrise-Описание:
Мир будущего снова раскололся на два лагеря. С одной стороны, Америка и Япония объединились в Альянс ради защиты свободы и демократии, с другой – неизвестные завоеватели подмяли под себя Европу, Россию и Азию, образовав республику Зогилия, стремящуюся к мировому господству. Каждая сторона, несмотря на ограниченность ресурсов, создает все более совершенных боевых роботов, ставших главной силой на всех театрах военных действий. В 2088 году наступило шаткое равновесие, время, когда даже маленький камушек может сорвать большую лавину.
Японский школьник Аоба Ватасэ, наш 16-летний современник, жил-поживал у моря в городе Нарасино и мечтать не мог, что однажды окажется в тесной кабине боевого робота вместе с красавицей-одноклассницей Хиной Юмихарой. Впрочем, даже наивный Аоба понял, что Хина не та, за кого себя выдает, когда девушка вполне профессионально отбилась от другого пилота, а потом направила машину в будущее, успев лишь подсказать парню, чтобы искал какого-то Дио. Вы уже догадались, что Ватасэ угодил в 2088 год, прямиком в гущу боя, причем судьба вынудила его выбрать сторону Альянса. Что дальше? «Гандамов» смотрели – зачем тогда спрашиваете?!
© Hollow, World Art
Buddy – американизм, отражающий широкий спектр дружеских, приятельских отношений. Тем не менее, чаще всего buddy – не просто товарищ, а компаньон, соратник в чем-то, к примеру, buddy movie – жанр фильмов о приключениях друзей, стремящихся к какой-то цели.
Как и во многих проектах студии Sunrise, сюжет сериала является компиляцией по мотивам известных произведений, созданной коллективом авторов под псевдонимом Ятатэ Хадзимэ.-Информационные ссылки: AniDB || World Art || MAL-Качество: BDRip
Энкод: Winter - RG Pantheon
Тип видео: без хардсаба, без линковки
Формат: mkv
Видео: x264 (Hi10p), 1280x720, ~5000 Kbps, 23.976 fps
Аудио JAP: Vorbis, 48000Hz, ~256 Kbps, 2ch-

Список эпизодов

01. Encounter
02. Nice Coupling

Скриншоты


Подробные тех. данные

Общее
Уникальный идентификатор : 203878266200784479311709460125440851719 (0x9961869A14A624DC9806F66A5F10BF07)
Полное имя : Z:\Anime\720p\Buddy Complex [BD] [720p] - копия\[Winter] Buddy Complex 01 [BDrip 1280x720 x264 Vorbis].mkv
Формат : Matroska
Версия формата : Version 2
Размер файла : 885 Мбайт
Продолжительность : 23 м.
Режим общего битрейта : Переменный
Общий поток : 5218 Кбит/сек
Дата кодирования : UTC 2014-04-04 18:11:01
Программа кодирования : mkvmerge v2.9.8 ('C'est le bon') built on Aug 13 2009 12:49:06
Библиотека кодирования : libebml v0.7.7 + libmatroska v0.8.1
Видео
Идентификатор : 1
Формат : AVC
Формат/Информация : Advanced Video Codec
Профиль формата : High 10@L4.1
Параметр CABAC формата : Да
Параметр ReFrames формата : 9 кадров
Идентификатор кодека : V_MPEG4/ISO/AVC
Продолжительность : 23 м.
Битрейт : 4858 Кбит/сек
Ширина : 1280 пикселей
Высота : 720 пикселей
Соотношение сторон : 16:9
Режим частоты кадров : Постоянный
Частота кадров : 23,976 кадра/сек
Цветовое пространство : YUV
Субдискретизация насыщенности : 4:2:0
Битовая глубина : 10 бит
Тип развёртки : Прогрессивная
Бит/(Пиксели*Кадры) : 0.220
Размер потока : 824 Мбайт (93%)
Библиотека кодирования : x264 core 132 r2309 3b1f1f7
Настройки программы : cabac=1 / ref=9 / deblock=1:-2:-2 / analyse=0x3:0x133 / me=umh / subme=9 / psy=1 / psy_rd=0.90:0.00 / mixed_ref=1 / me_range=24 / chroma_me=1 / trellis=2 / 8x8dct=1 / cqm=0 / deadzone=21,11 / fast_pskip=1 / chroma_qp_offset=-2 / threads=12 / lookahead_threads=2 / sliced_threads=0 / nr=0 / decimate=0 / interlaced=0 / bluray_compat=0 / constrained_intra=0 / bframes=8 / b_pyramid=2 / b_adapt=2 / b_bias=0 / direct=1 / weightb=1 / open_gop=0 / weightp=2 / keyint=250 / keyint_min=23 / scenecut=40 / intra_refresh=0 / rc=crf / mbtree=0 / crf=15.8 / qcomp=0.70 / qpmin=9 / qpmax=40 / qpstep=4 / ip_ratio=1.40 / pb_ratio=1.30 / aq=1:0.90 / zones=1194,3212,b=1.2
Default : Нет
Forced : Нет
Аудио
Идентификатор : 2
Формат : Vorbis
Параметр Floor формата : 1
Идентификатор кодека : A_VORBIS
Продолжительность : 23 м.
Вид битрейта : Переменный
Битрейт : 256 Кбит/сек
Каналы : 2 канала
Частота : 48,0 КГц
Метод сжатия : С потерями
Размер потока : 43,4 Мбайт (5%)
Библиотека кодирования : libVorbis (Schaufenugget) (20101101 (Schaufenugget))
Язык : Japanese
Default : Да
Forced : Нет
- -

Информация о релизе

  • Выбор видео, перевода, озвучки, а также типа сборки материала осуществляется релизером и не подлежит обсуждению. Если вы считаете, что раздаваемый материал противоречит правилам раздела "Аниме" rutracker.org, сообщите об этом одному из модераторов раздела.
  • В случае появления нового материала или же лучшего по качеству материала релизер оставляет за собой право обновить раздачу. В этом случае вам необходимо ознакомиться с изменениями (добавлениями) и перекачать торрент.
  • Данный релиз предназначен для просмотра на ПК. Воспроизведение на иных проигрывателях не гарантируется. Для просмотра рекомендуется Media Player Classic с установленным пакетом кодеков K-Lite.
  • Данный релиз содержит 10-битное видео (Hi10p). Для корректного воспроизведения обязательно используйте кодеки, поддерживающие 10-битное видео.
    Обсудить частные случаи проблем с воспроизведением и получить дополнительную информацию можно здесь.

  • Данный релиз предназначен для просмотра с внешними субтитрами и внешними звуковыми дорожками.
    • Для просмотра с внешней звуковой дорожкой нужно:
      перекинуть файлы .mka из папки "RUS Sound [<автор(ы) озвучки>]" в одну папку с видео и переключить звуковую дорожку в плеере при просмотре. Как это сделать в разных плеерах подробно описано здесь.

    • Для просмотра с субтитрами нужно:
      перекинуть файлы .ass из папки "RUS Subtitles [<автор(ы) перевода>]" в одну папку с видео - плеер подгрузит их автоматически при открытии видео.
  • Если у вас возникли проблемы с просмотром, не связанные с описанным выше, сообщите о них автору раздачи посредством сообщения в теме или ЛС Aglenn.

_________________
Показать сообщения:    

Текущее время: Сегодня 06:45

Часовой пояс: GMT



Вы не можете начинать темы
Вы не можете отвечать на сообщения
Вы не можете редактировать свои сообщения
Вы не можете удалять свои сообщения
Вы не можете голосовать в опросах
Вы не можете прикреплять файлы к сообщениям
Вы не можете скачивать файлы