Ивановский Торрент трекер
Яндекс.Погода
 

[Цитировать]
Shalun

-Тихая гавань / Safe Haven-Информация о фильме
Название: Тихая гавань
Оригинальное название: Safe Haven
Год выхода: 2013
Выпущено: США
Жанр: Триллер,Драма,Мелодрама,Детектив
Режиссер: Лассе Халльстрём
В ролях: Джулианна Хаф, Джош Дюамель, Дэвид Лайонс, Коби Смолдерс, Мими Кирклэнд, Ной Ломакс, Ред Уэст, Робин Маллинз, Ирен Циглер, Рик Рейц
О фильме: Кэти много лет страдала от жестокости мужа. Потеряв надежду на спасение, она совершила отчаянный побег и обрела «тихую гавань» в маленьком спокойном южном городке. Но готова ли Кэти к новым отношениям? Способна ли вновь поверить мужчине, понять его и полюбить? Даже если речь идет о таком обаятельном человеке, как молодой вдовец Алекс Уитли. Алекс и Кэти идут по тонкому льду неизвестности, - а между тем муж Кэти уже начал ее поиски.
Файл
Качество: BDRip [1080p]
Источник: Safe Haven 2013 Blu-ray 1080p AVC DTS-HD MA 5.1-HDWinG
Видео: MPEG4 Video 1920x800 at 23.976 fps, x264@L4.1 ~8317 kbps avg
Аудио#1: Russian: 48 kHz, DTS, 3/2 (L,C,R,l,r) + LFE ch, ~1536.00 kbps avg |Дубляж, Blu-ray|
Аудио#2: English: 48 kHz, DTS, 3/2 (L,C,R,l,r) + LFE ch, ~1536.00 kbps avg
Субтитры: English, English (SDH), English (SDH-COLORED)
Продолжительность: 01:55:38
Перевод: Дублированный

Знаете ли вы, что...

• Главная роль в фильме была предложена Кире Найтли. Но она отказалась, чтобы сыграть в фильме «Может ли песня спасти тебе жизнь?» (2013).

«Важно не то, от чего ты бежишь, а то, к чему ты приходишь»

Я очень рада, что он нашел тебя. (с) (рецензия от Лёховна)

Обожаю мелодрамы. Качественные мелодрамы от Николаса Спаркса. «Тихую гавань» ждала с особым нетерпением, потому что по стечению обстоятельств я к моменту выхода фильма как раз прочитала одноименное произведение.
Ну что можно сказать о фильме, если сравнивать его с оригиналом. Отлично! Великолепно! Браво! Конечно, не все, но плюсов куда больше, чем минусов. Очень порадовала главная героиня. Действительно, именно такой я представляла себе Кэтти (Джулианна Хаф). Миниатюрную блондинку с задорной улыбкой. Безусловно «в яблочко».
Алекс (Джош Дюамель) не плох, очень даже. Правда все же до отца семейства несколько не дотягивает, да и не блондин он, как прописано в книге, однако любо — дорого смотреть. Главное то, что ты ему веришь. И веришь его чувствам к Кэтти.
Кевин (Дэвид Льюис) вот про него ничего особо не скажу, потому что как-то его скомкали, сжевали и не показали истиной сущности этого персонажа. Хотя он довольно органичен в том, что осталось. Зачет.
Как я не хотела расхвалить данный фильм, но сказать, что в нем нет «косяков» — не возможно. Немного огорчило, что выкинули мысли Кевина, то, как он выслеживал жену, выкинули его жестокость. Показали совсем немного, а ведь суть, по идее, идет от того, почему она ушла от него. Ее скомканная история побега — это минус. Ну да, фильм первоначально задуман не как детектив, однако не понимаю, почему надо разводить слякоть, где можно добавить огоньку. Про сюжет говорить не стану, но считаю, что любители подобного оценят.
Характеризуя его кратко, скажу, что это «типично женский фильм». Для восторженных барышней, как я. Так и тянет написать, что желателен для просмотра тем, кто хочет красивой истории любви со счастливым концом, хэппи-эндом и пополнения коллекции фильмов на один раз. Но за этот банальный, заезженный, но мною так любимый сюжет, я ставлю
10 из 10

Дополнительная информация:

  • Сохранены оригинальные чаптеры как на Blu-ray.
  • Fix OCR, italics, overlapping, etc... @ Dorothea.

MediaInfo:

General
Unique ID : 183052985104637232996807657885334513720 (0x89B6B8F8876213C0B0C64FAA6A782838)
Complete name : F:Safe.Haven.2013.1080p.BluRay.DTS.Rus.Eng.mkv
Format : Matroska
Format version : Version 2
File size : 9.16 GiB
Duration : 1h 55mn
Overall bit rate : 11.3 Mbps
Movie name : Safe Haven (2013) - Release for HDCLUB
Encoded date : UTC 2013-04-25 23:33:11
Writing application : mkvmerge v3.4.0 ('Rapunzel') built on May 15 2010 09:38:20
Writing library : libebml v0.8.0 + libmatroska v0.9.0
Video
ID : 1
Format : AVC
Format/Info : Advanced Video Codec
Format profile : High@L4.1
Format settings, CABAC : Yes
Format settings, ReFrames : 5 frames
Codec ID : V_MPEG4/ISO/AVC
Duration : 1h 55mn
Bit rate : 8 094 Kbps
Width : 1 920 pixels
Height : 800 pixels
Display aspect ratio : 2.40:1
Frame rate mode : Constant
Frame rate : 23.976 fps
Color space : YUV
Chroma subsampling : 4:2:0
Bit depth : 8 bits
Scan type : Progressive
Bits/(Pixel*Frame) : 0.220
Stream size : 6.54 GiB (71%)
Title : Safe Haven (2013) - Release for HDCLUB
Writing library : x264 core 130 r2274+704+40 24c804d tMod+MixAQ [8-bit@4:2:0 X86_64]
Encoding settings : cabac=1 / ref=5 / deblock=1:-3:-3 / analyse=0x3:0x113 / me=umh / subme=11 / psy=1 / fade_compensate=0.00 / psy_rd=1.05:0.00 / mixed_ref=1 / me_range=48 / chroma_me=1 / trellis=2 / 8x8dct=1 / cqm=0 / deadzone=21,11 / fast_pskip=0 / chroma_qp_offset=-2 / threads=36 / lookahead_threads=6 / sliced_threads=0 / nr=0 / decimate=0 / interlaced=0 / bluray_compat=0 / constrained_intra=0 / fgo=0 / bframes=8 / b_pyramid=2 / b_adapt=2 / b_bias=0 / direct=3 / weightb=1 / open_gop=0 / weightp=2 / keyint=240 / keyint_min=24 / scenecut=40 / intra_refresh=0 / rc=crf / mbtree=0 / crf=16.8000 / qcomp=0.72 / qpmin=0 / qpmax=69 / qpstep=4 / ip_ratio=1.25 / pb_ratio=1.20 / aq=4:0.90 / aq-sensitivity=10.00 / aq-ifactor=1.00 / aq-pfactor=1.00 / aq-bfactor=1.00 / aq2=0
Language : English
Default : Yes
Forced : No
Audio #1
ID : 2
Format : DTS
Format/Info : Digital Theater Systems
Mode : 16
Format settings, Endianness : Big
Codec ID : A_DTS
Duration : 1h 55mn
Bit rate mode : Constant
Bit rate : 1 509 Kbps
Channel(s) : 6 channels
Channel positions : Front: L C R, Side: L R, LFE
Sampling rate : 48.0 KHz
Bit depth : 16 bits
Compression mode : Lossy
Stream size : 1.22 GiB (13%)
Title : DTS 5.1 @ 1536 kbps - DUB, Blu-ray
Language : Russian
Default : Yes
Forced : No
Audio #2
ID : 3
Format : DTS
Format/Info : Digital Theater Systems
Mode : 16
Format settings, Endianness : Big
Codec ID : A_DTS
Duration : 1h 55mn
Bit rate mode : Constant
Bit rate : 1 509 Kbps
Channel(s) : 6 channels
Channel positions : Front: L C R, Side: L R, LFE
Sampling rate : 48.0 KHz
Bit depth : 24 bits
Compression mode : Lossy
Delay relative to video : 11ms
Stream size : 1.22 GiB (13%)
Title : DTS 5.1 @ 1536 kbps
Language : English
Default : No
Forced : No
Text #1
ID : 4
Format : UTF-8
Codec ID : S_TEXT/UTF8
Codec ID/Info : UTF-8 Plain Text
Title : Full
Language : English
Default : No
Forced : No
Text #2
ID : 5
Format : UTF-8
Codec ID : S_TEXT/UTF8
Codec ID/Info : UTF-8 Plain Text
Title : SDH
Language : English
Default : No
Forced : No
Text #3
ID : 6
Format : UTF-8
Codec ID : S_TEXT/UTF8
Codec ID/Info : UTF-8 Plain Text
Title : SDH-COLORED
Language : English
Default : No
Forced : No
Menu
00:00:00.000 : en:00:00:00.000
00:06:46.948 : en:00:06:46.948
00:15:18.918 : en:00:15:18.918
00:21:47.139 : en:00:21:47.139
00:28:33.711 : en:00:28:33.711
00:35:33.881 : en:00:35:33.881
00:44:57.611 : en:00:44:57.611
00:55:11.641 : en:00:55:11.641
01:01:17.965 : en:01:01:17.965
01:08:29.522 : en:01:08:29.522
01:15:27.898 : en:01:15:27.898
01:20:51.429 : en:01:20:51.429
01:26:05.159 : en:01:26:05.159
01:32:22.411 : en:01:32:22.411
01:37:28.008 : en:01:37:28.008
01:45:23.650 : en:01:45:23.650

Скриншоты



Показать сообщения:    

Текущее время: 21-Сен 11:32

Часовой пояс: UTC - 1


Вы не можете начинать темы
Вы не можете отвечать на сообщения
Вы не можете редактировать свои сообщения
Вы не можете удалять свои сообщения
Вы не можете голосовать в опросах
Вы не можете прикреплять файлы к сообщениям
Вы не можете скачивать файлы

!ВНИМАНИЕ!
Сайт не предоставляет электронные версии произведений, а занимается лишь коллекционированием и каталогизацией ссылок, присылаемых и публикуемых на форуме нашими читателями. Если вы являетесь правообладателем какого-либо представленного материала и не желаете, чтобы ссылка на него находилась в нашем каталоге, свяжитесь с нами, и мы незамедлительно удалим ее. Файлы для обмена на трекере предоставлены пользователями сайта, и администрация не несет ответственности за их содержание. Просьба не заливать файлы, защищенные авторскими правами, а также файлы нелегального содержания!