Важное объявление!
У Нас Все раздачи мультитрекерные, при нуле пиров в релизах, можете смело вставать на закачку!
 
Автор Сообщение

HUNTER

Стаж:
4 года 10 месяцев
Сообщений:
65506

Репутация: 101

[+] [-]
Вне форума [Профиль] [ЛС]

Титан: После гибели земли / Titan A.E.
Страна: США
Жанр: мультфильм, фантастика, боевик, приключения
Продолжительность: 01:34:59
Год выпуска: 2000
Перевод 1: Профессиональный (дублированный)
Перевод 2: Профессиональный (многоголосый закадровый) #1
Перевод 3: Профессиональный (многоголосый закадровый) #2
Перевод 4: Авторский (одноголосый закадровый) Юрий Живов
Русские субтитры: русские (полные и форсированные (на надписи и речь Дреджей)), английские SRT
Оригинальная дорожка: английский
Режиссёр: Дон Блут, Гари Голдман, Арт Вителло / Don Bluth, Gary Goldman
Роли озвучивали: Мэтт Дэймон, Билл Пуллман, Джон Легуизамо, Натан Лэйн, Джанин Гарофало, Дрю Бэрримор, Рон Перлман, Алекс Д. Линц, Тоун Лок, Джим Брюэр
Описание: В 3028 году Дреджи — агрессивная инопланетная раса уничтожила Землю. Пятнадцать лет спустя — юный Кейл узнает, что он владеет генетически запрограммированной картой на Титан — космический супер-корабль, в котором заключен секрет спасения человечества.
Кейлу предстоит полное опасностей путешествие через вселенную в составе команды космического корабля «Валькирия», сражения со злыми Дреджами, и восстановление Титана — последней надежды всего человечества.

Качество: WEB-DL 720p
Формат: MKV
Видео: H264, 1280x544 (2.35:1), 23.976 fps, ~3986 kbps avg, 0.239 bit/pixel
Аудио №1: AC3, 48 kHz, AC3 Dolby Digital, 3/2 (L,C,R,l,r) + LFE ch, ~448 kbps Дубляж
Аудио №2: AC3, 48 kHz, AC3 Dolby Digital, 3/2 (L,C,R,l,r) + LFE ch, ~384 kbps MVO #1
Аудио №3: AC3, 48 kHz, AC3 Dolby Digital, 3/2 (L,C,R,l,r) + LFE ch, ~448 kbps MVO #2
Аудио №4: AC3, 48 kHz, AC3 Dolby Digital, 3/2 (L,C,R,l,r) + LFE ch, ~448 kbps Живов
Аудио №5: AC3, 48 kHz, AC3 Dolby Digital, 3/2 (L,C,R,l,r) + LFE ch, ~448 kbps Оригинал

Доп.инфо

за дорогу №2 спасибо анвад

Подробные технические данные

Полное имя : Титан После гибели земли 2000.mkvФормат : MatroskaВерсия формата : Version 4 / Version 2Размер файла : 4,17 ГбайтПродолжительность : 1 ч. 34 м.Общий поток : 6287 Кбит/секДата кодирования : UTC 2014-12-03 14:59:17Программа кодирования : mkvmerge v7.1.0 ('Good Love') 64bit built on Jul 27 2014 13:06:55Библиотека кодирования : libebml v1.3.0 + libmatroska v1.4.1DURATION : 01:24:44.230000000NUMBER_OF_FRAMES : 789NUMBER_OF_BYTES : 45951_STATISTICS_WRITING_APP : mkvmerge v7.1.0 ('Good Love') 64bit built on Jul 27 2014 13:06:55_STATISTICS_WRITING_DATE_UTC : 2014-12-03 14:59:17_STATISTICS_TAGS : BPS DURATION NUMBER_OF_FRAMES NUMBER_OF_BYTES
ВидеоИдентификатор : 1Формат : AVCФормат/Информация : Advanced Video CodecПрофиль формата : Main@L3.1Параметр CABAC формата : НетПараметр ReFrames формата : 2 кадраПараметр GOP формата : N=1Идентификатор кодека : V_MPEG4/ISO/AVCПродолжительность : 1 ч. 34 м.Битрейт : 3986 Кбит/секШирина : 1280 пикселейВысота : 544 пикселяСоотношение сторон : 2,35:1Режим частоты кадров : ПостоянныйЧастота кадров : 23,976 кадра/секЦветовое пространство : YUVСубдискретизация насыщенности : 4:2:0Битовая глубина : 8 битТип развёртки : ПрогрессивнаяБит/(Пиксели*Кадры) : 0.239Размер потока : 2,65 Гбайт (63%)Язык : EnglishDefault : ДаForced : НетОсновные цвета : BT.709Характеристики трансфера : BT.709Коэффициенты матрицы : BT.709
Аудио #1Идентификатор : 2Формат : AC-3Формат/Информация : Audio Coding 3Расширение режима : CM (complete main)Параметр Endianness формата : BigИдентификатор кодека : A_AC3Продолжительность : 1 ч. 34 м.Вид битрейта : ПостоянныйБитрейт : 448 Кбит/секКаналы : 6 каналовРасположение каналов : Front: L C R, Side: L R, LFEЧастота : 48,0 КГцБитовая глубина : 16 битМетод сжатия : С потерямиРазмер потока : 304 Мбайт (7%)Заголовок : DublyazhЯзык : RussianDefault : ДаForced : Нет
Аудио #2Идентификатор : 3Формат : AC-3Формат/Информация : Audio Coding 3Расширение режима : CM (complete main)Параметр Endianness формата : BigИдентификатор кодека : A_AC3Продолжительность : 1 ч. 34 м.Вид битрейта : ПостоянныйБитрейт : 384 Кбит/секКаналы : 6 каналовРасположение каналов : Front: L C R, Side: L R, LFEЧастота : 48,0 КГцБитовая глубина : 16 битМетод сжатия : С потерямиРазмер потока : 261 Мбайт (6%)Заголовок : MVO1Язык : RussianDefault : НетForced : Нет
Аудио #3Идентификатор : 4Формат : AC-3Формат/Информация : Audio Coding 3Расширение режима : CM (complete main)Параметр Endianness формата : BigИдентификатор кодека : A_AC3Продолжительность : 1 ч. 34 м.Вид битрейта : ПостоянныйБитрейт : 448 Кбит/секКаналы : 6 каналовРасположение каналов : Front: L C R, Side: L R, LFEЧастота : 48,0 КГцБитовая глубина : 16 битМетод сжатия : С потерямиРазмер потока : 304 Мбайт (7%)Заголовок : MVO2Язык : RussianDefault : НетForced : Нет
Аудио #4Идентификатор : 5Формат : AC-3Формат/Информация : Audio Coding 3Расширение режима : CM (complete main)Параметр Endianness формата : BigИдентификатор кодека : A_AC3Продолжительность : 1 ч. 34 м.Вид битрейта : ПостоянныйБитрейт : 448 Кбит/секКаналы : 6 каналовРасположение каналов : Front: L C R, Side: L R, LFEЧастота : 48,0 КГцБитовая глубина : 16 битМетод сжатия : С потерямиРазмер потока : 304 Мбайт (7%)Заголовок : ZhivovЯзык : RussianDefault : НетForced : Нет
Аудио #5Идентификатор : 6Формат : AC-3Формат/Информация : Audio Coding 3Расширение режима : CM (complete main)Параметр Endianness формата : BigИдентификатор кодека : A_AC3Продолжительность : 1 ч. 34 м.Вид битрейта : ПостоянныйБитрейт : 448 Кбит/секКаналы : 6 каналовРасположение каналов : Front: L C R, Side: L R, LFEЧастота : 48,0 КГцБитовая глубина : 16 битМетод сжатия : С потерямиРазмер потока : 304 Мбайт (7%)Заголовок : OriginalЯзык : EnglishDefault : НетForced : Нет
Текст #1Идентификатор : 7Формат : UTF-8Идентификатор кодека : S_TEXT/UTF8Идентификатор кодека/Информация : UTF-8 Plain TextЗаголовок : forceЯзык : RussianDefault : НетForced : Нет
Текст #2Идентификатор : 8Формат : UTF-8Идентификатор кодека : S_TEXT/UTF8Идентификатор кодека/Информация : UTF-8 Plain TextЯзык : RussianDefault : НетForced : Нет
Текст #3Идентификатор : 9Формат : UTF-8Идентификатор кодека : S_TEXT/UTF8Идентификатор кодека/Информация : UTF-8 Plain TextЯзык : EnglishDefault : НетForced : Нет
Меню00:00:00.000 : en:Prologue00:01:52.000 : en:The Drej Attack00:06:37.000 : en:15 Years Later00:12:18.000 : en:A Human Recruiter00:14:42.000 : en:A Father's Legacy00:15:56.000 : en:Being Chased00:20:53.000 : en:Being Healed00:24:33.000 : en:Navigation00:26:50.000 : en:Sesharrim00:35:57.000 : en:Captured00:40:38.000 : en:On A Trade Ship00:43:05.000 : en:Breaking Free00:52:10.000 : en:Unnatural Allies00:56:35.000 : en:On New Bangkok00:58:51.000 : en:A Ship01:02:32.000 : en:In The Ice Ring01:11:43.000 : en:A Message From Dad01:15:06.000 : en:Fight For The Ring01:22:12.000 : en:Building A Planet01:26:42.000 : en:End Titles

Скриншоты


_________________
Показать сообщения:    

Текущее время: Сегодня 00:00

Часовой пояс: GMT



Вы не можете начинать темы
Вы не можете отвечать на сообщения
Вы не можете редактировать свои сообщения
Вы не можете удалять свои сообщения
Вы не можете голосовать в опросах
Вы не можете прикреплять файлы к сообщениям
Вы не можете скачивать файлы