Ивановский Торрент трекер
Яндекс.Погода
 

[Цитировать]
HUNTER

Титаны: Неприятности в Токио / TEEN TITANS: Trouble in Tokyo- Страна: США
Жанр: мультфильм, фантастика, фэнтези, боевик, комедия, семейный
Продолжительность: 01:16:08
Год выпуска: 2006
Перевод 1: Любительский (двухголосый закадровый) ZM и Venera
Перевод 2: Одноголосый закадровый Dart
Русские субтитры: есть- -Режиссёр: Сэм Регистер, Глен Мураками / Sam Register, Glen Murakami
Описание: На Башню Титанов напал загадочный гость из далёкой Японии. И Титаны отправляются туда, чтобы выяснить причину, такого странного поступка. Во время своих приключений в столице Японии, Токио, юные Титаны выясняют истину и добиваются справедливости. Ну а как может быть иначе?- -Качество: WEB-DL 1080p By: YFN
Формат: MKV
Видео: AVC, 1916x1076, 23,976 fps, ~ 5 000 kbps
Аудио 1: AC3, 48 KHz, 6 channels, 384 Kbps - DVO [ZM и Venera]
Аудио 2: AC3, 48 KHz, 2 channels, 192 Kbps - VO [Dart]
Аудио 3: AC3, 48 KHz, 2 channels, 192 Kbps - MVO [Цікава Iдея]
Аудио 4: AC3, 48 kHz, 6 channels, 384 kbps - ENG [Оригинал]
Субтитры: русские [Mr. Anonim] , английские -

Подробные технические данные

GeneralUnique ID : 228531830273103998487430298717059341488 (0xABEDA1280452B82691C1CD95439CDCB0)Complete name : F:\Teen.Titans.Trouble.in.Tokyo.2006.1080p.WEB-DL.DD5.1.H.264-YFN\Teen.Titans.Trouble.in.Tokyo.2006.1080p.WEB-DL.DD5.1.H.264-YFN (1).mkvFormat : MatroskaFormat version : Version 4 / Version 2File size : 3.18 GiBDuration : 1h 16mnOverall bit rate : 5 979 KbpsEncoded date : UTC 2015-02-07 09:24:25Writing application : mkvmerge v7.5.0 ('Glass Culture') 32bit built on Jan 4 2015 16:37:25Writing library : libebml v1.3.1 + libmatroska v1.4.2DURATION : 01:15:06.496000000NUMBER_OF_FRAMES : 140828NUMBER_OF_BYTES : 108155904_STATISTICS_WRITING_APP : mkvmerge v7.5.0 ('Glass Culture') 32bit built on Jan 4 2015 16:37:25_STATISTICS_WRITING_DATE_UTC : 2015-02-07 09:24:25_STATISTICS_TAGS : BPS DURATION NUMBER_OF_FRAMES NUMBER_OF_BYTES
VideoID : 1Format : AVCFormat/Info : Advanced Video CodecFormat profile : High@L4.0Format settings, CABAC : YesFormat settings, ReFrames : 4 framesFormat settings, GOP : N=2Codec ID : V_MPEG4/ISO/AVCDuration : 1h 16mnBit rate : 4 772 KbpsWidth : 1 916 pixelsHeight : 1 076 pixelsDisplay aspect ratio : 16:9Frame rate mode : ConstantFrame rate : 23.976 fpsColor space : YUVChroma subsampling : 4:2:0Bit depth : 8 bitsScan type : ProgressiveBits/(Pixel*Frame) : 0.097Stream size : 2.53 GiB (80%)Language : EnglishDefault : YesForced : NoColor primaries : BT.709Transfer characteristics : BT.709Matrix coefficients : BT.709
Audio #1ID : 2Format : AC-3Format/Info : Audio Coding 3Mode extension : CM (complete main)Format settings, Endianness : BigCodec ID : A_AC3Duration : 1h 16mnBit rate mode : ConstantBit rate : 384 KbpsChannel count : 6 channelsChannel positions : Front: L C R, Side: L R, LFESampling rate : 48.0 KHzBit depth : 16 bitsCompression mode : LossyStream size : 174 MiB (5%)Title : DVO [ZM и Venera]Language : RussianDefault : YesForced : No
Audio #2ID : 3Format : AC-3Format/Info : Audio Coding 3Mode extension : CM (complete main)Format settings, Endianness : BigCodec ID : A_AC3Duration : 1h 16mnBit rate mode : ConstantBit rate : 192 KbpsChannel count : 2 channelsChannel positions : Front: L RSampling rate : 48.0 KHzBit depth : 16 bitsCompression mode : LossyStream size : 104 MiB (3%)Title : VO [Dart]Language : RussianDefault : NoForced : No
Audio #3ID : 4Format : AC-3Format/Info : Audio Coding 3Mode extension : CM (complete main)Format settings, Endianness : BigCodec ID : A_AC3Duration : 1h 16mnBit rate mode : ConstantBit rate : 192 KbpsChannel count : 2 channelsChannel positions : Front: L RSampling rate : 48.0 KHzBit depth : 16 bitsCompression mode : LossyDelay relative to video : 1s 200msStream size : 104 MiB (3%)Title : MVO [Цікава Iдея]Language : UkrainianDefault : NoForced : No
Audio #4ID : 5Format : AC-3Format/Info : Audio Coding 3Mode extension : CM (complete main)Format settings, Endianness : BigCodec ID : A_AC3Duration : 1h 16mnBit rate mode : ConstantBit rate : 384 KbpsChannel count : 6 channelsChannel positions : Front: L C R, Side: L R, LFESampling rate : 48.0 KHzBit depth : 16 bitsCompression mode : LossyStream size : 209 MiB (6%)Language : EnglishDefault : NoForced : No
Text #1ID : 6Format : UTF-8Codec ID : S_TEXT/UTF8Codec ID/Info : UTF-8 Plain TextTitle : [Mr.Anonim]Language : RussianDefault : NoForced : No
Text #2ID : 7Format : UTF-8Codec ID : S_TEXT/UTF8Codec ID/Info : UTF-8 Plain TextLanguage : EnglishDefault : NoForced : No


Показать сообщения:    

Текущее время: 13-Дек 10:57

Часовой пояс: UTC ± 0


Вы не можете начинать темы
Вы не можете отвечать на сообщения
Вы не можете редактировать свои сообщения
Вы не можете удалять свои сообщения
Вы не можете голосовать в опросах
Вы не можете прикреплять файлы к сообщениям
Вы не можете скачивать файлы

!ВНИМАНИЕ!
Сайт не предоставляет электронные версии произведений, а занимается лишь коллекционированием и каталогизацией ссылок, присылаемых и публикуемых на форуме нашими читателями. Если вы являетесь правообладателем какого-либо представленного материала и не желаете, чтобы ссылка на него находилась в нашем каталоге, свяжитесь с нами, и мы незамедлительно удалим ее. Файлы для обмена на трекере предоставлены пользователями сайта, и администрация не несет ответственности за их содержание. Просьба не заливать файлы, защищенные авторскими правами, а также файлы нелегального содержания!