Ивановский Торрент трекер
Яндекс.Погода
Статистика раздачи
Размер:  34.27 GB   |    Зарегистрирован:  3 года 10 месяцев   |    Скачан:  0 раз

Полного источника не было: Никогда

 
     
 
 
 

[Цитировать]
HUNTER

Титаник / Titanic- Год выпуска: 1997
Страна: США
Жанр: драма, мелодрама
Продолжительность: 03:14:55
Перевод #01: Профессиональный (полное дублирование) Blu-ray CEE
Перевод #02: Профессиональный (полное дублирование) R5
Перевод #03: Профессиональный (многоголосый, закадровый) Киномания
Перевод #04: Профессиональный (двухголосый, закадровый) НТВ+
Перевод #05: Профессиональный (двухголосый, закадровый) П.Гланц и И.Королева
Перевод #06: Авторский одноголосый закадровый А.Гаврилов
Перевод #07: Авторский одноголосый закадровый Ю.Живов
Перевод #08: Авторский одноголосый закадровый С.Визгунов
Перевод #09: Авторский одноголосый закадровый А.Кашкин
Перевод #10: Одноголосый закадровый Н.Антонов
Оригинальная звуковая дорожка: English
Cубтитры: Russian (forced), Russian (Blu-ray CEE), Russian (R5), Ukrainian (captions), Ukrainian (Blu-ray CEE), English-Режиссер: Джеймс Кэмерон / James Cameron
В ролях: Леонардо ДиКаприо, Кейт Уинслет, Билли Зейн, Кэти Бейтс, Фрэнсис Фишер, Глория Стюарт, Билл Пэкстон, Бернард Хилл, Дэвид Уорнер, Виктор Гарбер
О фильме: Молодые влюбленные Джек и Роза находят друг друга в первом и последнем плавании «непотопляемого» Титаника. Они не могли знать, что шикарный лайнер столкнется с айсбергом в холодных водах Северной Атлантики, и их страстная любовь превратится в схватку со смертью...-CHD!
Релиз: by Skazhutin
Формат: MKV
Видео: 1920x1080 at 23.976 fps, x264@L4.1, 2pass, ~17500 kbps avg
Аудио #01: Russian: 48 kHz, DTS, 3/2 (L,C,R,l,r) + LFE ch, ~768 kbps avg |Дубляж, Blu-ray CEE|
Аудио #02: Russian: 48 kHz, AC3-EX, 3/2 (L,C,R,l,r) + LFE ch, ~448 kbps avg |Дубляж, R5|
Аудио #03: Russian: 48 kHz, AC3, 3/2 (L,C,R,l,r) + LFE ch, ~384 kbps avg |Многоголосый закадровый, Киномания|
Аудио #04: Russian: 48 kHz, AC3, 3/2 (L,C,R,l,r) + LFE ch, ~448 kbps avg |Двухголосый закадровый, НТВ+|
Аудио #05: Russian: 48 kHz, DTS, 3/2 (L,C,R,l,r) + LFE ch, ~1509 kbps avg |Двухголосый закадровый, П. Гланц и И. Королёва|
Аудио #06: Russian: 48 kHz, DTS, 3/2 (L,C,R,l,r) + LFE ch, ~768 kbps avg |Одноголосый закадровый, А. Гаврилов|
Аудио #07: Russian: 48 kHz, AC3, 3/2 (L,C,R,l,r) + LFE ch, ~448 kbps avg |Одноголосый закадровый, Ю. Живов|
Аудио #08: Russian: 48 kHz, AC3, 2/0 (L,R) ch, ~192 kbps avg |Одноголосый закадровый, С. Визгунов|
Аудио #09: Russian: 48 kHz, AC3, 2/0 (L,R) ch, ~192 kbps avg |Одноголосый закадровый, А. Кашкин|
Аудио #10: Russian: 48 kHz, AC3, 2/0 (L,R) ch, ~192 kbps avg |Одноголосый закадровый, Н. Антонов|
Аудио #11: Ukrainian: 48 kHz, AC3, 3/2 (L,C,R,l,r) + LFE ch, ~448 kbps avg |Дубляж, Blu-ray CEE|
Аудио #12: Ukrainian: 48 kHz, AC3, 2/0 (L,R) ch, ~192 kbps avg |Многоголосый закадровый, 1+1|
Аудио #13: Ukrainian: 48 kHz, AC3, 2/0 (L,R) ch, ~192 kbps avg |Многоголосый закадровый, Новый канал|
Аудио #14: English: 48 kHz, DTS, 3/2 (L,C,R,l,r) + LFE ch, ~1509 kbps avg
Семпл-

Скриншоты


-

mInfo


Формат : Matroska
Версия формата : Version 4 / Version 2
Размер файла : 34,3 Гбайт
Продолжительность : 3 ч. 14 м.
Общий поток : 25,2 Мбит/сек
Название фильма : Titanic (1997) - Release for HDCLUB
Дата кодирования : UTC 2014-01-14 11:15:52
Программа кодирования : mkvmerge v6.6.0 ('The Edge Of The In Between') built on Dec 1 2013 17:55:00
Библиотека кодирования : libebml v1.3.0 + libmatroska v1.4.1
Attachment : Yes
Видео
Идентификатор : 1
Формат : AVC
Формат/Информация : Advanced Video Codec
Профиль формата : High@L4.1
Параметр CABAC формата : Да
Параметр ReFrames формата : 4 кадра
Идентификатор кодека : V_MPEG4/ISO/AVC
Продолжительность : 3 ч. 14 м.
Битрейт : 17,5 Мбит/сек
Ширина : 1920 пикселей
Высота : 1080 пикселей
Соотношение сторон : 16:9
Режим частоты кадров : Постоянный
Частота кадров : 23,976 кадра/сек
Цветовое пространство : YUV
Субдискретизация насыщенности : 4:2:0
Битовая глубина : 8 бит
Тип развёртки : Прогрессивная
Бит/(Пиксели*Кадры) : 0.352
Размер потока : 23,1 Гбайт (68%)
Заголовок : Release for HDCLUB
Библиотека кодирования : x264 core 125 r2208 d9d2288
Настройки программы : cabac=1 / ref=4 / deblock=1:-3:-3 / analyse=0x3:0x113 / me=umh / subme=10 / psy=1 / psy_rd=1.05:0.10 / mixed_ref=1 / me_range=32 / chroma_me=1 / trellis=2 / 8x8dct=1 / cqm=0 / deadzone=21,11 / fast_pskip=0 / chroma_qp_offset=-2 / threads=8 / lookahead_threads=1 / sliced_threads=0 / nr=0 / decimate=1 / interlaced=0 / bluray_compat=0 / constrained_intra=0 / bframes=6 / b_pyramid=2 / b_adapt=2 / b_bias=0 / direct=3 / weightb=1 / open_gop=0 / weightp=2 / keyint=250 / keyint_min=23 / scenecut=40 / intra_refresh=0 / rc=2pass / mbtree=0 / bitrate=17500 / ratetol=1.0 / qcomp=0.70 / qpmin=0 / qpmax=69 / qpstep=4 / cplxblur=20.0 / qblur=0.5 / ip_ratio=1.40 / pb_ratio=1.30 / aq=2:1.00
Язык : English
Default : Да
Forced : Нет
Аудио #1
Идентификатор : 2
Формат : DTS
Формат/Информация : Digital Theater Systems
Режим : 16
Параметр Endianness формата : Big
Идентификатор кодека : A_DTS
Продолжительность : 3 ч. 14 м.
Вид битрейта : Постоянный
Битрейт : 768 Кбит/сек
Каналы : 6 каналов
Расположение каналов : Front: L C R, Side: L R, LFE
Частота : 48,0 КГц
Битовая глубина : 24 бит
Метод сжатия : С потерями
Размер потока : 1,05 Гбайт (3%)
Заголовок : Dub, Blu-ray CEE
Язык : Russian
Default : Да
Forced : Нет
Аудио #2
Идентификатор : 3
Формат : AC-3
Формат/Информация : Audio Coding 3
Расширение режима : CM (complete main)
Параметр Endianness формата : Big
Идентификатор кодека : A_AC3
Продолжительность : 3 ч. 14 м.
Вид битрейта : Постоянный
Битрейт : 448 Кбит/сек
Каналы : 6 каналов
Расположение каналов : Front: L C R, Side: L R, LFE
Частота : 48,0 КГц
Битовая глубина : 16 бит
Метод сжатия : С потерями
Размер потока : 625 Мбайт (2%)
Заголовок : Dub, R5
Язык : Russian
Default : Нет
Forced : Нет
Аудио #3
Идентификатор : 4
Формат : AC-3
Формат/Информация : Audio Coding 3
Расширение режима : CM (complete main)
Параметр Endianness формата : Big
Идентификатор кодека : A_AC3
Продолжительность : 3 ч. 14 м.
Вид битрейта : Постоянный
Битрейт : 384 Кбит/сек
Каналы : 6 каналов
Расположение каналов : Front: L C R, Side: L R, LFE
Частота : 48,0 КГц
Битовая глубина : 16 бит
Метод сжатия : С потерями
Размер потока : 535 Мбайт (2%)
Заголовок : MVO, Киномания
Язык : Russian
Default : Нет
Forced : Нет
Аудио #4
Идентификатор : 5
Формат : AC-3
Формат/Информация : Audio Coding 3
Расширение режима : CM (complete main)
Параметр Endianness формата : Big
Идентификатор кодека : A_AC3
Продолжительность : 3 ч. 14 м.
Вид битрейта : Постоянный
Битрейт : 448 Кбит/сек
Каналы : 6 каналов
Расположение каналов : Front: L C R, Side: L R, LFE
Частота : 48,0 КГц
Битовая глубина : 16 бит
Метод сжатия : С потерями
Размер потока : 625 Мбайт (2%)
Заголовок : DVO, НТВ+
Язык : Russian
Default : Нет
Forced : Нет
Аудио #5
Идентификатор : 6
Формат : DTS
Формат/Информация : Digital Theater Systems
Режим : 16
Параметр Endianness формата : Big
Идентификатор кодека : A_DTS
Продолжительность : 3 ч. 14 м.
Вид битрейта : Постоянный
Битрейт : 1510 Кбит/сек
Каналы : 6 каналов
Расположение каналов : Front: L C R, Side: L R, LFE
Частота : 48,0 КГц
Битовая глубина : 24 бит
Метод сжатия : С потерями
Размер потока : 2,06 Гбайт (6%)
Заголовок : DVO, Гланц и Королёва
Язык : Russian
Default : Нет
Forced : Нет
Аудио #6
Идентификатор : 7
Формат : DTS
Формат/Информация : Digital Theater Systems
Режим : 16
Параметр Endianness формата : Big
Идентификатор кодека : A_DTS
Продолжительность : 3 ч. 14 м.
Вид битрейта : Постоянный
Битрейт : 755 Кбит/сек
Каналы : 6 каналов
Расположение каналов : Front: L C R, Side: L R, LFE
Частота : 48,0 КГц
Битовая глубина : 24 бит
Метод сжатия : С потерями
Размер потока : 1,03 Гбайт (3%)
Заголовок : VO, Гаврилов
Язык : Russian
Default : Нет
Forced : Нет
Аудио #7
Идентификатор : 8
Формат : AC-3
Формат/Информация : Audio Coding 3
Расширение режима : CM (complete main)
Параметр Endianness формата : Big
Идентификатор кодека : A_AC3
Продолжительность : 3 ч. 14 м.
Вид битрейта : Постоянный
Битрейт : 448 Кбит/сек
Каналы : 6 каналов
Расположение каналов : Front: L C R, Side: L R, LFE
Частота : 48,0 КГц
Битовая глубина : 16 бит
Метод сжатия : С потерями
Размер потока : 625 Мбайт (2%)
Заголовок : VO, Живов
Язык : Russian
Default : Нет
Forced : Нет
Аудио #8
Идентификатор : 9
Формат : AC-3
Формат/Информация : Audio Coding 3
Расширение режима : CM (complete main)
Параметр Endianness формата : Big
Идентификатор кодека : A_AC3
Продолжительность : 3 ч. 14 м.
Вид битрейта : Постоянный
Битрейт : 192 Кбит/сек
Каналы : 2 канала
Расположение каналов : Front: L R
Частота : 48,0 КГц
Битовая глубина : 16 бит
Метод сжатия : С потерями
Размер потока : 268 Мбайт (1%)
Заголовок : VO, Визгунов
Язык : Portuguese
Default : Нет
Forced : Нет
Аудио #9
Идентификатор : 10
Формат : AC-3
Формат/Информация : Audio Coding 3
Расширение режима : CM (complete main)
Параметр Endianness формата : Big
Идентификатор кодека : A_AC3
Продолжительность : 3 ч. 14 м.
Вид битрейта : Постоянный
Битрейт : 192 Кбит/сек
Каналы : 2 канала
Расположение каналов : Front: L R
Частота : 48,0 КГц
Битовая глубина : 16 бит
Метод сжатия : С потерями
Размер потока : 268 Мбайт (1%)
Заголовок : VO, Кашкин
Язык : Russian
Default : Нет
Forced : Нет
Аудио #10
Идентификатор : 11
Формат : AC-3
Формат/Информация : Audio Coding 3
Расширение режима : CM (complete main)
Параметр Endianness формата : Big
Идентификатор кодека : A_AC3
Продолжительность : 3 ч. 14 м.
Вид битрейта : Постоянный
Битрейт : 192 Кбит/сек
Каналы : 2 канала
Расположение каналов : Front: L R
Частота : 48,0 КГц
Битовая глубина : 16 бит
Метод сжатия : С потерями
Размер потока : 268 Мбайт (1%)
Заголовок : VO, Антонов
Язык : Russian
Default : Нет
Forced : Нет
Аудио #11
Идентификатор : 12
Формат : AC-3
Формат/Информация : Audio Coding 3
Расширение режима : CM (complete main)
Параметр Endianness формата : Big
Идентификатор кодека : A_AC3
Продолжительность : 3 ч. 14 м.
Вид битрейта : Постоянный
Битрейт : 448 Кбит/сек
Каналы : 6 каналов
Расположение каналов : Front: L C R, Side: L R, LFE
Частота : 48,0 КГц
Битовая глубина : 16 бит
Метод сжатия : С потерями
Размер потока : 625 Мбайт (2%)
Заголовок : Dub, Blu-ray CEE
Язык : Ukrainian
Default : Нет
Forced : Нет
Аудио #12
Идентификатор : 13
Формат : AC-3
Формат/Информация : Audio Coding 3
Расширение режима : CM (complete main)
Параметр Endianness формата : Big
Идентификатор кодека : A_AC3
Продолжительность : 3 ч. 14 м.
Вид битрейта : Постоянный
Битрейт : 192 Кбит/сек
Каналы : 2 канала
Расположение каналов : Front: L R
Частота : 48,0 КГц
Битовая глубина : 16 бит
Метод сжатия : С потерями
Размер потока : 268 Мбайт (1%)
Заголовок : MVO, 1+1
Язык : Ukrainian
Default : Нет
Forced : Нет
Аудио #13
Идентификатор : 14
Формат : AC-3
Формат/Информация : Audio Coding 3
Расширение режима : CM (complete main)
Параметр Endianness формата : Big
Идентификатор кодека : A_AC3
Продолжительность : 3 ч. 14 м.
Вид битрейта : Постоянный
Битрейт : 192 Кбит/сек
Каналы : 2 канала
Расположение каналов : Front: L R
Частота : 48,0 КГц
Битовая глубина : 16 бит
Метод сжатия : С потерями
Размер потока : 268 Мбайт (1%)
Заголовок : MVO, Новый канал
Язык : Ukrainian
Default : Нет
Forced : Нет
Аудио #14
Идентификатор : 15
Формат : DTS
Формат/Информация : Digital Theater Systems
Режим : 16
Параметр Endianness формата : Big
Идентификатор кодека : A_DTS
Продолжительность : 3 ч. 14 м.
Вид битрейта : Постоянный
Битрейт : 1509 Кбит/сек
Каналы : 6 каналов
Расположение каналов : Front: L C R, Side: L R, LFE
Частота : 48,0 КГц
Битовая глубина : 24 бит
Метод сжатия : С потерями
Размер потока : 2,05 Гбайт (6%)
Язык : English
Default : Нет
Forced : Нет
Текст #1
Идентификатор : 16
Формат : UTF-8
Идентификатор кодека : S_TEXT/UTF8
Идентификатор кодека/Информация : UTF-8 Plain Text
Заголовок : forced, Blu-ray CEE
Язык : Russian
Default : Да
Forced : Нет
Текст #2
Идентификатор : 17
Формат : UTF-8
Идентификатор кодека : S_TEXT/UTF8
Идентификатор кодека/Информация : UTF-8 Plain Text
Заголовок : Blu-ray CEE
Язык : Russian
Default : Нет
Forced : Нет
Текст #3
Идентификатор : 18
Формат : UTF-8
Идентификатор кодека : S_TEXT/UTF8
Идентификатор кодека/Информация : UTF-8 Plain Text
Заголовок : R5
Язык : Russian
Default : Нет
Forced : Нет
Текст #4
Идентификатор : 19
Формат : UTF-8
Идентификатор кодека : S_TEXT/UTF8
Идентификатор кодека/Информация : UTF-8 Plain Text
Заголовок : captions, Blu-ray CEE
Язык : Ukrainian
Default : Нет
Forced : Нет
Текст #5
Идентификатор : 20
Формат : UTF-8
Идентификатор кодека : S_TEXT/UTF8
Идентификатор кодека/Информация : UTF-8 Plain Text
Заголовок : Blu-ray CEE
Язык : Ukrainian
Default : Нет
Forced : Нет
Текст #6
Идентификатор : 21
Формат : UTF-8
Идентификатор кодека : S_TEXT/UTF8
Идентификатор кодека/Информация : UTF-8 Plain Text
Язык : English
Default : Нет
Forced : Нет
Меню
00:00:00.000 : en:Opening Credits
00:01:24.375 : en:Ghost Ship
00:04:39.988 : en:Into the Wreck
00:08:26.130 : en:The Keldysh
00:10:46.771 : en:The Woman in the Picture
00:12:52.646 : en:Old Rose Arrives
00:16:52.427 : en:Reflections of the Past
00:20:07.748 : en:Back to Titanic
00:23:38.875 : en:A Lucky Hand
00:26:26.543 : en:Leaving Port
00:29:03.366 : en:Cherbourg
00:29:37.525 : en:Ode to Titanic
00:34:59.930 : en:First Glance
00:36:48.622 : en:"You Jump, I Jump"
00:42:59.159 : en:An Invitation to Dinner
00:45:26.098 : en:The Heart of the Ocean
00:47:11.620 : en:Sketches and Stories
00:53:33.042 : en:Learning New Things
00:56:47.987 : en:Dinner with Jack
01:05:32.052 : en:A Real Party
01:10:19.965 : en:A Cold Breakfast
01:14:06.358 : en:Sunday Prayer
01:16:10.690 : en:"They've Got You Trapped"
01:19:59.043 : en:Flying
01:22:50.506 : en:"That Was the Last Time..."
01:23:40.056 : en:The Drawing
01:28:21.629 : en:"My Heart Was Pounding"
01:29:19.854 : en:"Find Her"
01:32:52.274 : en:Two Souls United
01:36:59.104 : en:"Iceberg Right Ahead!"
01:44:41.149 : en:An Honest Thief
01:46:21.040 : en:A Mathematical Certainty
01:47:58.846 : en:A Stricken Relationship
01:50:11.103 : en:Andrews Tells Rose
01:52:21.400 : en:Women and Children First
01:53:54.326 : en:Third Class Patience
01:55:21.830 : en:A Small Token of Appreciation
01:56:10.879 : en:"Goodbye, Mother"
01:57:53.232 : en:"Can Anybody Hear Me?"
02:06:38.340 : en:A View From the Lifeboats
02:08:49.971 : en:Third Class Panic
02:11:22.081 : en:Starting to Fall Apart
02:15:42.550 : en:"Get on the Boat, Rose"
02:19:43.457 : en:Cal Spurned
02:21:24.558 : en:Flooding Below Decks
02:25:28.760 : en:Two Tragic Bullets
02:27:28.422 : en:Questions of Character
02:29:07.270 : en:Captain Smith
02:29:56.695 : en:Nearer My God to Thee
02:33:31.534 : en:Shattered Dreams
02:36:52.360 : en:At the Siren
02:38:33.878 : en:Prayer for the Dying
02:40:34.665 : en:Death of Titanic
02:45:00.639 : en:Sea of Humanity
02:47:48.807 : en:In the Lifeboats
02:49:22.526 : en:The Promise
02:52:09.609 : en:"We Waited Too Long"
02:53:41.326 : en:"I'll Never Let Go"
02:57:53.495 : en:Never an Absolution
02:59:35.305 : en:The Carpathia
03:01:29.252 : en:Expedition's End
03:03:13.648 : en:Rose's Secret
03:04:57.877 : en:A Promise Dept
03:07:19.643 : en:End Credits

-

x264


x264 [info]: frame I:2309 Avg QP:14.95 size:264973
x264 [info]: frame P:64716 Avg QP:17.42 size:140865
x264 [info]: frame B:213365 Avg QP:19.47 size: 74236
-
[iv-torrents.ru].t22976.torrent
Торрент: Зарегистрирован [ 2014-01-27 22:22 ] · 57A0EC99D561273ABD54BE3E443C869A6AFAF608

Скачать .torrent

Скачать

86 KB

Статус: проверено
Скачан: 0 раз
Размер: 34.27 GB
terms.php
Похожие темы


Показать сообщения:    

Текущее время: 12-Дек 20:12

Часовой пояс: UTC ± 0


Вы не можете начинать темы
Вы не можете отвечать на сообщения
Вы не можете редактировать свои сообщения
Вы не можете удалять свои сообщения
Вы не можете голосовать в опросах
Вы не можете прикреплять файлы к сообщениям
Вы можете скачивать файлы

!ВНИМАНИЕ!
Сайт не предоставляет электронные версии произведений, а занимается лишь коллекционированием и каталогизацией ссылок, присылаемых и публикуемых на форуме нашими читателями. Если вы являетесь правообладателем какого-либо представленного материала и не желаете, чтобы ссылка на него находилась в нашем каталоге, свяжитесь с нами, и мы незамедлительно удалим ее. Файлы для обмена на трекере предоставлены пользователями сайта, и администрация не несет ответственности за их содержание. Просьба не заливать файлы, защищенные авторскими правами, а также файлы нелегального содержания!