Важное объявление!
У Нас Все раздачи мультитрекерные, при нуле пиров в релизах, можете смело вставать на закачку!
 
Автор Сообщение

HUNTER

Стаж:
4 года 8 месяцев
Сообщений:
62020

Репутация: 101

[+] [-]
Вне форума [Профиль] [ЛС]

Титаник / Titanic«Ничто на Земле не сможет разлучить их»
Страна: США
Студия: 20th Century Fox, Paramount Pictures, Lightstorm Entertainment
Жанр: Драма, мелодрама
Год выпуска: 1997
Продолжительность: 03:14:50
Перевод: Профессиональный (дублированный) Blu-ray CEE
Перевод 2: Профессиональный (дублированный) R5
Перевод 3: Профессиональный (многоголосый закадровый) Киномания
Перевод 4: Профессиональный (двухголосый закадровый) НТВ+
Перевод 5: Профессиональный (двухголосый закадровый) Гланц и Королёва
Перевод 6: Авторский (одноголосый закадровый) А. Гаврилов
Перевод 7: Авторский (одноголосый закадровый) Ю. Живов
Перевод 8: Авторский (одноголосый закадровый) С. Визгунов
Перевод 9: Авторский (одноголосый закадровый) А. Кашкин
Перевод 10: Одноголосый закадровый Н. Антонов
Cубтитры: Russian (forced), Russian (Blu-ray CEE), Russian (R5), Ukrainian (captions), Ukrainian (Blu-ray CEE), English
Оригинальная аудиодорожка: английский
Режиссер: Джеймс Кэмерон / James Cameron
В ролях: Леонардо ДиКаприо, Кейт Уинслет, Билли Зейн, Кэти Бэйтс, Фрэнсис Фишер, Глория Стюарт, Билл Пэкстон, Бернард Хилл, Дэвид Уорнер, Виктор Гарбер, Джонатан Хайд, Сьюзи Эймис, Льюис Абернати, Николас Каскон, Анатолий Сагалевич, Дэнни Нуччи, Джейсон Бэрри, Ивэн Стюарт, Йоан Гриффит, Джонатан Филлипс, Марк Линдсэй Чэпман, Ричард Грэхэм, Пол Брайтвелл, Рон Донаки, Эрик Браден, Шарлотта Чаттон, Бернард Фокс, Майкл Инсайн, Фанни Бретт, Дженетт Голдстин, Камилла Овербай Рус, Линда Кернс, Эми Джаипа, Мартин Джарвис, Розалинд Эйрс, Рошелль Роуз, Джонатан Эванс-Джонс, Брайан Уолш, Роки Тейлор, Александреа Оуенс, Саймон Крэйн, Эдва...
Описание: Титаник... Она ступила на его грандиозную палубу зная, что лайнер везет ее в будущую тюрьму, имя которой — брак по расчету... Он в последний момент чудом оказался на уровне кают третьего класса, но свято верил, что этот пароход доставит его в будущее, которое в его собственных руках! Кто же мог тогда предположить, что будущее самого лайнера уже предопределено? Но в мире все-же есть непотопляемые вещи... И может быть одна из них — это простая человеческая память?..

Тип релиза: BDRip 1080p
Контейнер: MKV
Видео: 1920x820 at 23.976 fps, x264@L4.1, 2pass, ~16800 kbps avg
Аудио: Russian: 48 kHz, DTS, 3/2 (L,C,R,l,r) + LFE ch, ~768 kbps avg |Дубляж, Blu-ray CEE|
Аудио 2: Russian: 48 kHz, AC3-EX, 3/2 (L,C,R,l,r) + LFE ch, ~448 kbps avg |Дубляж, R5|
Аудио 3: Russian: 48 kHz, AC3, 3/2 (L,C,R,l,r) + LFE ch, ~384 kbps avg |Многоголосый закадровый, Киномания|
Аудио 4: Russian: 48 kHz, AC3, 3/2 (L,C,R,l,r) + LFE ch, ~448 kbps avg |Двухголосый закадровый, НТВ+|
Аудио 5: Russian: 48 kHz, DTS, 3/2 (L,C,R,l,r) + LFE ch, ~1509 kbps avg |Двухголосый закадровый, П. Гланц и И. Королёва|
Аудио 6: Russian: 48 kHz, DTS, 3/2 (L,C,R,l,r) + LFE ch, ~768 kbps avg |Одноголосый закадровый, А. Гаврилов|
Аудио 7: Russian: 48 kHz, AC3, 3/2 (L,C,R,l,r) + LFE ch, ~448 kbps avg |Одноголосый закадровый, Ю. Живов|
Аудио 8: Russian: 48 kHz, AC3, 2/0 (L,R) ch, ~192 kbps avg |Одноголосый закадровый, С. Визгунов|
Аудио 9: Russian: 48 kHz, AC3, 2/0 (L,R) ch, ~192 kbps avg |Одноголосый закадровый, А. Кашкин|
Аудио 10: Russian: 48 kHz, AC3, 2/0 (L,R) ch, ~192 kbps avg |Одноголосый закадровый, Н. Антонов|
Аудио 11: Ukrainian: 48 kHz, AC3, 3/2 (L,C,R,l,r) + LFE ch, ~448 kbps avg |Дубляж, Blu-ray CEE|
Аудио 12: Ukrainian: 48 kHz, AC3, 2/0 (L,R) ch, ~192 kbps avg |Многоголосый закадровый, 1+1|
Аудио 13: Ukrainian: 48 kHz, AC3, 2/0 (L,R) ch, ~192 kbps avg |Многоголосый закадровый, Новый канал|
Аудио 14: English: 48 kHz, DTS, 3/2 (L,C,R,l,r) + LFE ch, ~1509 kbps avg
Дополнительная информация:
  • Рип от SbR!
  • Сохранены чаптеры как на оригинальном blu-ray

MediaInfo

Общее
Уникальный идентификатор : 224826153752289196930410698568235907888 (0xA923F132A987C266954F04C10A3E7B30)
Полное имя : D:\torrent\Titanic.1997.1080p.BluRay.10xRus.3xUkr.Eng.HDCLUB-SbR.mkv
Формат : Matroska
Версия формата : Version 4 / Version 2
Размер файла : 33,3 Гбайт
Продолжительность : 3 ч. 14 м.
Общий поток : 24,5 Мбит/сек
Название фильма : Titanic (1997) - Release for HDCLUB by SbR
Дата кодирования : UTC 2014-01-17 08:19:13
Программа кодирования : mkvmerge v6.2.0 ('Promised Land') built on Apr 28 2013 12:22:01
Библиотека кодирования : libebml v1.3.0 + libmatroska v1.4.0
Attachment : Yes / Yes
Видео
Идентификатор : 1
Формат : AVC
Формат/Информация : Advanced Video Codec
Профиль формата : High@L4.1
Параметр CABAC формата : Да
Параметр ReFrames формата : 5 кадров
Идентификатор кодека : V_MPEG4/ISO/AVC
Продолжительность : 3 ч. 14 м.
Битрейт : 16,8 Мбит/сек
Ширина : 1920 пикселей
Высота : 820 пикселей
Соотношение сторон : 2,35:1
Режим частоты кадров : Постоянный
Частота кадров : 23,976 кадра/сек
Цветовое пространство : YUV
Субдискретизация насыщенности : 4:2:0
Битовая глубина : 8 бит
Тип развёртки : Прогрессивная
Бит/(Пиксели*Кадры) : 0.445
Размер потока : 22,2 Гбайт (67%)
Заголовок : Release for HDCLUB
Библиотека кодирования : x264 core 140 r2377+40 929f149 tMod [8-bit@4:2:0 X86_64]
Настройки программы : cabac=1 / ref=5 / deblock=1:-2:-2 / analyse=0x3:0x113 / me=umh / subme=11 / psy=1 / fade_compensate=0.00 / psy_rd=1.00:0.00 / mixed_ref=1 / me_range=48 / chroma_me=1 / trellis=2 / 8x8dct=1 / cqm=0 / deadzone=21,11 / fast_pskip=0 / chroma_qp_offset=-2 / threads=12 / lookahead_threads=2 / sliced_threads=0 / nr=0 / decimate=1 / interlaced=0 / bluray_compat=0 / constrained_intra=0 / fgo=0 / bframes=8 / b_pyramid=2 / b_adapt=2 / b_bias=0 / direct=3 / weightb=1 / open_gop=0 / weightp=2 / keyint=250 / keyint_min=23 / scenecut=40 / intra_refresh=0 / rc_lookahead=60 / rc=2pass / mbtree=0 / bitrate=16800 / ratetol=1.0 / qcomp=0.70 / qpmin=0:0:0 / qpmax=69:69:69 / qpstep=4 / cplxblur=20.0 / qblur=0.5 / vbv_maxrate=62500 / vbv_bufsize=78125 / nal_hrd=none / filler=0 / ip_ratio=1.40 / pb_ratio=1.30 / aq=4:0.80 / aq-sensitivity=11.00 / aq-factor=1.00:1.00:1.00 / aq2=1:0.60 / aq2-sensitivity=9.00 / aq2-factor=1.00:1.00:1.00 / aq3=1:[0.60:0.60]:[0.60:0.60]:[0.60:0.60]:[0.60:0.60] / aq3-sensitivity=10.00 / aq3-factor=[1.00:1.00]:[1.00:1.00]:[1.00:1.00] / aq3-boundary=192:64:24
Язык : English
Default : Да
Forced : Нет
Основные цвета : BT.709
Характеристики трансфера : BT.709
Коэффициенты матрицы : BT.709
Аудио #1
Идентификатор : 2
Формат : DTS
Формат/Информация : Digital Theater Systems
Режим : 16
Параметр Endianness формата : Big
Идентификатор кодека : A_DTS
Продолжительность : 3 ч. 14 м.
Вид битрейта : Постоянный
Битрейт : 768 Кбит/сек
Каналы : 6 каналов
Расположение каналов : Front: L C R, Side: L R, LFE
Частота : 48,0 КГц
Битовая глубина : 24 бит
Метод сжатия : С потерями
Размер потока : 1,05 Гбайт (3%)
Заголовок : Dub, Blu-ray CEE
Язык : Russian
Default : Да
Forced : Нет
Аудио #2
Идентификатор : 3
Формат : AC-3
Формат/Информация : Audio Coding 3
Расширение режима : CM (complete main)
Параметр Endianness формата : Big
Идентификатор кодека : A_AC3
Продолжительность : 3 ч. 14 м.
Вид битрейта : Постоянный
Битрейт : 448 Кбит/сек
Каналы : 6 каналов
Расположение каналов : Front: L C R, Side: L R, LFE
Частота : 48,0 КГц
Битовая глубина : 16 бит
Метод сжатия : С потерями
Размер потока : 624 Мбайт (2%)
Заголовок : Dub, R5
Язык : Russian
Default : Нет
Forced : Нет
Аудио #3
Идентификатор : 4
Формат : AC-3
Формат/Информация : Audio Coding 3
Расширение режима : CM (complete main)
Параметр Endianness формата : Big
Идентификатор кодека : A_AC3
Продолжительность : 3 ч. 14 м.
Вид битрейта : Постоянный
Битрейт : 384 Кбит/сек
Каналы : 6 каналов
Расположение каналов : Front: L C R, Side: L R, LFE
Частота : 48,0 КГц
Битовая глубина : 16 бит
Метод сжатия : С потерями
Размер потока : 535 Мбайт (2%)
Заголовок : MVO, Киномания
Язык : Russian
Default : Нет
Forced : Нет
Аудио #4
Идентификатор : 5
Формат : AC-3
Формат/Информация : Audio Coding 3
Расширение режима : CM (complete main)
Параметр Endianness формата : Big
Идентификатор кодека : A_AC3
Продолжительность : 3 ч. 14 м.
Вид битрейта : Постоянный
Битрейт : 448 Кбит/сек
Каналы : 6 каналов
Расположение каналов : Front: L C R, Side: L R, LFE
Частота : 48,0 КГц
Битовая глубина : 16 бит
Метод сжатия : С потерями
Размер потока : 624 Мбайт (2%)
Заголовок : DVO, НТВ+
Язык : Russian
Default : Нет
Forced : Нет
Аудио #5
Идентификатор : 6
Формат : DTS
Формат/Информация : Digital Theater Systems
Режим : 16
Параметр Endianness формата : Big
Идентификатор кодека : A_DTS
Продолжительность : 3 ч. 14 м.
Вид битрейта : Постоянный
Битрейт : 1510 Кбит/сек
Каналы : 6 каналов
Расположение каналов : Front: L C R, Side: L R, LFE
Частота : 48,0 КГц
Битовая глубина : 24 бит
Метод сжатия : С потерями
Размер потока : 2,05 Гбайт (6%)
Заголовок : DVO, Гланц и Королёва
Язык : Russian
Default : Нет
Forced : Нет
Аудио #6
Идентификатор : 7
Формат : DTS
Формат/Информация : Digital Theater Systems
Режим : 16
Параметр Endianness формата : Big
Идентификатор кодека : A_DTS
Продолжительность : 3 ч. 14 м.
Вид битрейта : Постоянный
Битрейт : 755 Кбит/сек
Каналы : 6 каналов
Расположение каналов : Front: L C R, Side: L R, LFE
Частота : 48,0 КГц
Битовая глубина : 24 бит
Метод сжатия : С потерями
Размер потока : 1,03 Гбайт (3%)
Заголовок : VO, Гаврилов
Язык : Russian
Default : Нет
Forced : Нет
Аудио #7
Идентификатор : 8
Формат : AC-3
Формат/Информация : Audio Coding 3
Расширение режима : CM (complete main)
Параметр Endianness формата : Big
Идентификатор кодека : A_AC3
Продолжительность : 3 ч. 14 м.
Вид битрейта : Постоянный
Битрейт : 448 Кбит/сек
Каналы : 6 каналов
Расположение каналов : Front: L C R, Side: L R, LFE
Частота : 48,0 КГц
Битовая глубина : 16 бит
Метод сжатия : С потерями
Размер потока : 624 Мбайт (2%)
Default : Нет
Forced : Нет
Аудио #8
Идентификатор : 9
Формат : AC-3
Формат/Информация : Audio Coding 3
Расширение режима : CM (complete main)
Параметр Endianness формата : Big
Идентификатор кодека : A_AC3
Продолжительность : 3 ч. 14 м.
Вид битрейта : Постоянный
Битрейт : 192 Кбит/сек
Каналы : 2 канала
Расположение каналов : Front: L R
Частота : 48,0 КГц
Битовая глубина : 16 бит
Метод сжатия : С потерями
Размер потока : 268 Мбайт (1%)
Заголовок : VO, Визгунов
Язык : Portuguese
Default : Нет
Forced : Нет
Аудио #9
Идентификатор : 10
Формат : AC-3
Формат/Информация : Audio Coding 3
Расширение режима : CM (complete main)
Параметр Endianness формата : Big
Идентификатор кодека : A_AC3
Продолжительность : 3 ч. 14 м.
Вид битрейта : Постоянный
Битрейт : 192 Кбит/сек
Каналы : 2 канала
Расположение каналов : Front: L R
Частота : 48,0 КГц
Битовая глубина : 16 бит
Метод сжатия : С потерями
Размер потока : 268 Мбайт (1%)
Заголовок : VO, Кашкин
Язык : Russian
Default : Нет
Forced : Нет
Аудио #10
Идентификатор : 11
Формат : AC-3
Формат/Информация : Audio Coding 3
Расширение режима : CM (complete main)
Параметр Endianness формата : Big
Идентификатор кодека : A_AC3
Продолжительность : 3 ч. 14 м.
Вид битрейта : Постоянный
Битрейт : 192 Кбит/сек
Каналы : 2 канала
Расположение каналов : Front: L R
Частота : 48,0 КГц
Битовая глубина : 16 бит
Метод сжатия : С потерями
Размер потока : 268 Мбайт (1%)
Заголовок : VO, Антонов
Язык : Russian
Default : Нет
Forced : Нет
Аудио #11
Идентификатор : 12
Формат : AC-3
Формат/Информация : Audio Coding 3
Расширение режима : CM (complete main)
Параметр Endianness формата : Big
Идентификатор кодека : A_AC3
Продолжительность : 3 ч. 14 м.
Вид битрейта : Постоянный
Битрейт : 448 Кбит/сек
Каналы : 6 каналов
Расположение каналов : Front: L C R, Side: L R, LFE
Частота : 48,0 КГц
Битовая глубина : 16 бит
Метод сжатия : С потерями
Размер потока : 624 Мбайт (2%)
Заголовок : Dub, Blu-ray CEE
Язык : Ukrainian
Default : Нет
Forced : Нет
Аудио #12
Идентификатор : 13
Формат : AC-3
Формат/Информация : Audio Coding 3
Расширение режима : CM (complete main)
Параметр Endianness формата : Big
Идентификатор кодека : A_AC3
Продолжительность : 3 ч. 14 м.
Вид битрейта : Постоянный
Битрейт : 192 Кбит/сек
Каналы : 2 канала
Расположение каналов : Front: L R
Частота : 48,0 КГц
Битовая глубина : 16 бит
Метод сжатия : С потерями
Размер потока : 268 Мбайт (1%)
Заголовок : MVO, 1+1
Язык : Ukrainian
Default : Нет
Forced : Нет
Аудио #13
Идентификатор : 14
Формат : AC-3
Формат/Информация : Audio Coding 3
Расширение режима : CM (complete main)
Параметр Endianness формата : Big
Идентификатор кодека : A_AC3
Продолжительность : 3 ч. 14 м.
Вид битрейта : Постоянный
Битрейт : 192 Кбит/сек
Каналы : 2 канала
Расположение каналов : Front: L R
Частота : 48,0 КГц
Битовая глубина : 16 бит
Метод сжатия : С потерями
Размер потока : 268 Мбайт (1%)
Заголовок : MVO, Новый канал
Язык : Ukrainian
Default : Нет
Forced : Нет
Аудио #14
Идентификатор : 15
Формат : DTS
Формат/Информация : Digital Theater Systems
Режим : 16
Параметр Endianness формата : Big
Идентификатор кодека : A_DTS
Продолжительность : 3 ч. 14 м.
Вид битрейта : Постоянный
Битрейт : 1509 Кбит/сек
Каналы : 6 каналов
Расположение каналов : Front: L C R, Side: L R, LFE
Частота : 48,0 КГц
Битовая глубина : 24 бит
Метод сжатия : С потерями
Размер потока : 2,05 Гбайт (6%)
Язык : English
Default : Нет
Forced : Нет
Текст #1
Идентификатор : 16
Формат : UTF-8
Идентификатор кодека : S_TEXT/UTF8
Идентификатор кодека/Информация : UTF-8 Plain Text
Заголовок : forced, Blu-ray CEE
Язык : Russian
Default : Да
Forced : Нет
Текст #2
Идентификатор : 17
Формат : UTF-8
Идентификатор кодека : S_TEXT/UTF8
Идентификатор кодека/Информация : UTF-8 Plain Text
Заголовок : Blu-ray CEE
Язык : Russian
Default : Нет
Forced : Нет
Текст #3
Идентификатор : 18
Формат : UTF-8
Идентификатор кодека : S_TEXT/UTF8
Идентификатор кодека/Информация : UTF-8 Plain Text
Заголовок : R5
Язык : Russian
Default : Нет
Forced : Нет
Текст #4
Идентификатор : 19
Формат : UTF-8
Идентификатор кодека : S_TEXT/UTF8
Идентификатор кодека/Информация : UTF-8 Plain Text
Заголовок : captions, Blu-ray CEE
Язык : Ukrainian
Default : Нет
Forced : Нет
Текст #5
Идентификатор : 20
Формат : UTF-8
Идентификатор кодека : S_TEXT/UTF8
Идентификатор кодека/Информация : UTF-8 Plain Text
Заголовок : Blu-ray CEE
Язык : Ukrainian
Default : Нет
Forced : Нет
Текст #6
Идентификатор : 21
Формат : UTF-8
Идентификатор кодека : S_TEXT/UTF8
Идентификатор кодека/Информация : UTF-8 Plain Text
Язык : English
Default : Нет
Forced : Нет
Меню
00:00:00.000 : en:Opening Credits
00:01:24.375 : en:Ghost Ship
00:04:39.988 : en:Into the Wreck
00:08:26.130 : en:The Keldysh
00:10:46.771 : en:The Woman in the Picture
00:12:52.646 : en:Old Rose Arrives
00:16:52.427 : en:Reflections of the Past
00:20:07.748 : en:Back to Titanic
00:23:38.875 : en:A Lucky Hand
00:26:26.543 : en:Leaving Port
00:29:03.366 : en:Cherbourg
00:29:37.525 : en:Ode to Titanic
00:34:59.930 : en:First Glance
00:36:48.622 : en:"You Jump, I Jump"
00:42:59.159 : en:An Invitation to Dinner
00:45:26.098 : en:The Heart of the Ocean
00:47:11.620 : en:Sketches and Stories
00:53:33.042 : en:Learning New Things
00:56:47.987 : en:Dinner with Jack
01:05:32.052 : en:A Real Party
01:10:19.965 : en:A Cold Breakfast
01:14:06.358 : en:Sunday Prayer
01:16:10.690 : en:"They've Got You Trapped"
01:19:59.043 : en:Flying
01:22:50.506 : en:"That Was the Last Time..."
01:23:40.056 : en:The Drawing
01:28:21.629 : en:"My Heart Was Pounding"
01:29:19.854 : en:"Find Her"
01:32:52.274 : en:Two Souls United
01:36:59.104 : en:"Iceberg Right Ahead!"
01:44:41.149 : en:An Honest Thief
01:46:21.040 : en:A Mathematical Certainty
01:47:58.846 : en:A Stricken Relationship
01:50:11.103 : en:Andrews Tells Rose
01:52:21.400 : en:Women and Children First
01:53:54.326 : en:Third Class Patience
01:55:21.830 : en:A Small Token of Appreciation
01:56:10.879 : en:"Goodbye, Mother"
01:57:53.232 : en:"Can Anybody Hear Me?"
02:06:38.340 : en:A View From the Lifeboats
02:08:49.971 : en:Third Class Panic
02:11:22.081 : en:Starting to Fall Apart
02:15:42.550 : en:"Get on the Boat, Rose"
02:19:43.457 : en:Cal Spurned
02:21:24.558 : en:Flooding Below Decks
02:25:28.760 : en:Two Tragic Bullets
02:27:28.422 : en:Questions of Character
02:29:07.270 : en:Captain Smith
02:29:56.695 : en:Nearer My God to Thee
02:33:31.534 : en:Shattered Dreams
02:36:52.360 : en:At the Siren
02:38:33.878 : en:Prayer for the Dying
02:40:34.665 : en:Death of Titanic
02:45:00.639 : en:Sea of Humanity
02:47:48.807 : en:In the Lifeboats
02:49:22.526 : en:The Promise
02:52:09.609 : en:"We Waited Too Long"
02:53:41.326 : en:"I'll Never Let Go"
02:57:53.495 : en:Never an Absolution
02:59:35.305 : en:The Carpathia
03:01:29.252 : en:Expedition's End
03:03:13.648 : en:Rose's Secret
03:04:57.877 : en:A Promise Dept
03:07:19.643 : en:End Credits

Скриншоты


_________________
Показать сообщения:    

Текущее время: Сегодня 12:12

Часовой пояс: GMT



Вы не можете начинать темы
Вы не можете отвечать на сообщения
Вы не можете редактировать свои сообщения
Вы не можете удалять свои сообщения
Вы не можете голосовать в опросах
Вы не можете прикреплять файлы к сообщениям
Вы не можете скачивать файлы
Наши партнеры: интернет магазин Ивановского трикотажа textilla.ru