Важное объявление!
У Нас Все раздачи мультитрекерные, при нуле пиров в релизах, можете смело вставать на закачку!
Статистика раздачи
Размер:     |    Зарегистрирован:     |    Скачан:     |   
Нет
 
     
 
 
Автор Сообщение

mihis

[Профиль] [ЛС]

Титаник: Кровь и сталь / Titanic: Blood and Steel«How the legend came into being.»12 СерийГод выпуска: 2012
Страна: Ирландия, Италия, Франция, Канада, Великобритания, Испания, Antena 3 Films, DAP Italy, De Angelis Group, Epos Films, Rai Fiction
Жанр: Драма, история
Продолжительность: 12 x ~ 00:55:00
Перевод: Профессиональный (многоголосый, закадровый) BaibaKo + Английский, Немецкий
Субтитры: нет
Режиссер: Киаран Доннелли
В ролях: Кевин Зегерс, Алессандра Мастронарди, Нив Кэмпбелл, Дерек Джекоби, Билли Картер, Массимо Гини, Валентина Корти, Герард МакКарти, Йен МакЭлхинни, Мартин МакКанн, Джонатан Форбс, Фрэнк Маккаскер, Офелия Ловибонд, Шарлотта Брэдли, Бэрри МакЭвой, Каолан Бирн, Брануэлл Донахи, Грэй О’Брайэн, Эдоардо Лео, Стефен Ганн, Томми О’нилл, Лиам Каннингэм, Майкл МакЭлхаттон, Элинор Метвин, Ив Маклин, Карл Шейлз, Кейт О’Тул, Джеймс Флинн, Пауль Хервиг, Лайам МакМахон, Крис Нот, Лайам Карни, Гэвин О’Коннор, Оуэн Шарп, Денис Гоф, Терри Бирн, Джонатан Харден
Описание: Главными действующими лицами сериала станут собственно создатели лайнера, заранее названного непотопляемым, вынужденные работать в атмосфере политического и финансового давления. Джейкоби сыграет владельца компании Harland & Wolff, со стапелей которой и сошел обреченный «четырехтрубник», Ноту предстоит перевоплотиться в финансиста Джей Пи Моргана, а Нив Кэмпбелл станет журналисткой, освещающей первое плавание «Титаника» и имеющей свои причины оказаться на борту.

Качество: BDRip 720p
Формат: MKV
Видео кодек: H.26x
Аудио кодек: AC3, DTS
Видео: MPEG4 AVC, ~ 3600 Кбит/с, 1280x720
Аудио #1: AC3, 6 ch, 384 Кбит/с Rus
Аудио #2: AC3, 6 ch, 640 Кбит/с Eng
Аудио #2: DTS, 6 ch, 1510 Кбит/с Ger

Список серий

01. A City Divided
02. Stained Steel
03. Good Man Down
04. Danger Looms
05. Under Lock and Key
06. The Imposter
07. The Truth Shall Set You Free
08. High Stakes
09. Burden of Proof
10. A Crack in the Armor
11. The Tipping Point
12. The 'Unsinkable' Sets Sail

MediaInfo

General
Unique ID : 172509443625940168032312496000322553390 (0x81C81C3DBA172F0B8FC139003E74C62E)
Complete name : I:\Titanic.Blood.and.Steel.2012.s01e01.BDRip.720p.tvbkm70.mkv
Format : Matroska
File size : 2.51 GiB
Duration : 54mn 18s
Overall bit rate : 6 612 Kbps
Movie name : BaibaKo.tv presents - Титаник: кровь и сталь 1х01
Encoded date : UTC 2012-10-26 00:42:44
Writing application : mkvmerge v5.0.0 ('Die Wahre Liebe') built on Sep 25 2011 20:33:49
Writing library : libebml v1.2.2 + libmatroska v1.3.0
Video
ID : 1
Format : AVC
Format/Info : Advanced Video Codec
Format profile : Baseline@L3.1
Format settings, CABAC : No
Format settings, ReFrames : 1 frame
Codec ID : V_MPEG4/ISO/AVC
Duration : 54mn 18s
Bit rate : 3 946 Kbps
Width : 1 280 pixels
Height : 720 pixels
Display aspect ratio : 16:9
Frame rate mode : Variable
Frame rate : 23.976 fps
Color space : YUV
Chroma subsampling : 4:2:0
Bit depth : 8 bits
Scan type : Progressive
Bits/(Pixel*Frame) : 0.179
Stream size : 1.50 GiB (60%)
Audio #1
ID : 2
Format : AC-3
Format/Info : Audio Coding 3
Mode extension : CM (complete main)
Codec ID : A_AC3
Duration : 54mn 18s
Bit rate mode : Constant
Bit rate : 384 Kbps
Channel(s) : 6 channels
Channel positions : Front: L C R, Side: L R, LFE
Sampling rate : 48.0 KHz
Bit depth : 16 bits
Compression mode : Lossy
Stream size : 149 MiB (6%)
Title : Rus BaibaKo.tv DD5.1
Language : Russian
Audio #2
ID : 3
Format : AC-3
Format/Info : Audio Coding 3
Mode extension : CM (complete main)
Codec ID : A_AC3
Duration : 54mn 18s
Bit rate mode : Constant
Bit rate : 640 Kbps
Channel(s) : 6 channels
Channel positions : Front: L C R, Side: L R, LFE
Sampling rate : 48.0 KHz
Bit depth : 16 bits
Compression mode : Lossy
Stream size : 249 MiB (10%)
Title : Eng DD5.1
Language : English
Audio #3
ID : 4
Format : DTS
Format/Info : Digital Theater Systems
Codec ID : A_DTS
Duration : 54mn 18s
Bit rate mode : Constant
Bit rate : 1 510 Kbps
Channel(s) : 6 channels
Channel positions : Front: L C R, Side: L R, LFE
Sampling rate : 48.0 KHz
Bit depth : 24 bits
Compression mode : Lossy
Stream size : 586 MiB (23%)
Title : Ger DTS 5.1
Language : German
Источник
 
Показать сообщения:    

Текущее время: Сегодня 18:25

Часовой пояс: GMT



Вы не можете начинать темы
Вы не можете отвечать на сообщения
Вы не можете редактировать свои сообщения
Вы не можете удалять свои сообщения
Вы не можете голосовать в опросах
Вы не можете прикреплять файлы к сообщениям
Вы не можете скачивать файлы