Важное объявление!
У Нас Все раздачи мультитрекерные, при нуле пиров в релизах, можете смело вставать на закачку!
Статистика раздачи
Размер:     |    Зарегистрирован:     |    Скачан:     |   
Нет
 
     
 
 
Автор Сообщение

HUNTER

Стаж:
5 лет 1 месяц
Сообщений:
68439

Репутация: 101

[+] [-]
Вне форума [Профиль] [ЛС]

Территория Оклахомы / Oklahoma Territory
Страна: США
Жанр: вестерн
Год выпуска: 1960
Продолжительность: 01:04:19
Перевод: Профессиональный (двухголосый закадровый) НТВ+
Cубтитры: нет
Оригинальная аудиодорожка: английский
Режиссер: Эдвард Л. Кан / Edward L. Cahn
В ролях: Билл Уильямс, Глория Тэлботт, Тед де Корсия, Грант Ричардс, Уолтер Сэнд, X Brands, Уолтер Болдуин, Грэндон Родс, Фрэнк Бэйкер, Джордж Бэрроус...
Описание: Окружной прокурор пытается обвинить индейского вождя в убийстве индейского агента, но начинает верить, что вождь возможно не виновен, события подкреплены мощными интересами других людей, которые хотят начать войну между индейцами и местными жителями.
Семпл: http://sendfile.su/1218234
Тип релиза: HDTV 1080i
Контейнер: TS
Видео: 1920x1080 (16:9), 25.000 fps, AVC, ~6766 Kbps, 0.131 bits/pixel
Аудио: Russian, 48.0 KHz, MPEG-1 Audio layer 2, 2 ch, 192 Kbps
Аудио 2: English, 48.0 KHz, MPEG-1 Audio layer 2, 2 ch, 192 Kbps

MediaInfo

General
ID : 1 (0x1)
Complete name : Y:\Recordings\Movie\Oklahoma Territory 1960 MGMHD DVO NTV+.rus.eng.ts
Format : MPEG-TS
File size : 3.38 GiB
Duration : 1h 4mn
Overall bit rate mode : Variable
Overall bit rate : 7 526 Kbps
Maximum Overall bit rate : 35.5 Mbps
Video
ID : 4113 (0x1011)
Menu ID : 1 (0x1)
Format : AVC
Format/Info : Advanced Video Codec
Format profile : Main@L4
Format settings, CABAC : Yes
Format settings, ReFrames : 4 frames
Format settings, GOP : M=4, N=28
Codec ID : 27
Duration : 1h 4mn
Bit rate mode : Variable
Bit rate : 6 766 Kbps
Maximum bit rate : 40.0 Mbps
Width : 1 920 pixels
Height : 1 080 pixels
Display aspect ratio : 16:9
Frame rate : 25.000 fps
Standard : Component
Color space : YUV
Chroma subsampling : 4:2:0
Bit depth : 8 bits
Scan type : Interlaced
Scan type, store method : Separated fields
Scan order : Top Field First
Bits/(Pixel*Frame) : 0.131
Stream size : 3.04 GiB (90%)
Color range : Limited
Color primaries : BT.709
Transfer characteristics : BT.709
Matrix coefficients : BT.709
Audio #1
ID : 4352 (0x1100)
Menu ID : 1 (0x1)
Format : MPEG Audio
Format version : Version 1
Format profile : Layer 2
Codec ID : 4
Duration : 1h 4mn
Bit rate mode : Constant
Bit rate : 192 Kbps
Channel(s) : 2 channels
Sampling rate : 48.0 KHz
Compression mode : Lossy
Stream size : 88.3 MiB (3%)
Language : Russian
Audio #2
ID : 4353 (0x1101)
Menu ID : 1 (0x1)
Format : MPEG Audio
Format version : Version 1
Format profile : Layer 2
Codec ID : 4
Duration : 1h 4mn
Bit rate mode : Constant
Bit rate : 192 Kbps
Channel(s) : 2 channels
Sampling rate : 48.0 KHz
Compression mode : Lossy
Stream size : 88.3 MiB (3%)
Language : English

Скриншоты


_________________
Показать сообщения:    

Текущее время: Сегодня 00:30

Часовой пояс: GMT



Вы не можете начинать темы
Вы не можете отвечать на сообщения
Вы не можете редактировать свои сообщения
Вы не можете удалять свои сообщения
Вы не можете голосовать в опросах
Вы не можете прикреплять файлы к сообщениям
Вы не можете скачивать файлы