Ивановский Торрент трекер
Яндекс.Погода
 

[Цитировать]
HUNTER

-Год выпуска: 2012
Страна: США
Жанр: Комедия
Продолжительность: ~20 минут
Перевод: Одноголосый профессиональный [Кураж-бамбей]
Субтитры: Английские [Отключаемые]-Режиссёр: Джеймс Берроу-В ролях: Джонни Галекки, Джим Парсонс, Кейли Куоко, Саймон Хельберг, Кунал Найяр- -Описание:

Два блестящих физика, Леонард и Шелдон, «великие умы»,
которые понимают как «работает вселенная».
Но их гениальность ничуть не помогает им общаться с людьми, особенно с женщинами.
Всё начинает меняться, когда напротив них поселяется красавица Пенни.
Когда Леонард и Шелдон встречают Пенни, Леонард сразу же начинает интересоваться ею.
Он видит в общении с Пенни огромную перспективу…, вплоть до любви, однако Шелдон понимает,
что мечтам его друга не суждено сбыться.
Стоит также отметить пару странных друзей этих физиков:
Говард Воловиц, который любит употреблять фразы на разных языках, включая русский и Раджеш Кутрапали,
теряющий дар речи при виде женщин.
-Качество: WEB-DL 1080p
Формат: MKV
Видео кодек: AVC
Аудио кодек: АС3
Видео: 1920x1080, ~ 5 000 kbps, 23.976 fps, 0.104 bit/pixel
Аудио:
5.1 ch, 48 kHz, 384 kbps, 16 bit [RUS] [Кураж-бамбей]
5.1 ch, 48 kHz, 384 kbps, 16 bit [ENG] [Оригинал]
-

Список эпизодов:

-1. Не стабильное свидание (The Date Night Variable)
2. В зависимости от колебаний (The Decoupling Fluctuation)
3. Наблюдения Бозона (The Higgs Boson Observation)
4. Минимизация возвращения (The Re-Entry Minimization)
5. Голографическое возбуждение (The Holographic Excitation)
6. Экстракт Забвения (The Extract Obliteration)
7. Жилищная конфигурация (The Habitation Configuration)
8. 43 особенности (The 43 Peculiarity)
9. Расширение парковочного места (The Parking Spot Escalation)
10. Свежевание рыбных потрохов (The Fish Guts Displacement)
11. Симуляция Санты (The Santa Simulation)
12. Эквивалентность яичного салата (The Egg Salad Equivalency)
13. Бейкерсфилдская экспедиция (The Bakersfield Expedition)
14. Инверсия "Купер-Крипке" (The Cooper-Kripke Inversion)
15. Сегментация сигнала тревоги (The Spoiler Alert Segmentation)
16. Вещественное доказательство близости (The Tangible Affection Proof)
17. Изоляция монстра (The Monster Isolation)
18. Договор об исполнении (The Contractual Obligation Implementation)
19. Личностная реконфигурация (The Closet Reconfiguration)
20. Состояние турбулентности (The Tenure Turbulence)
21. Альтернативная концовка (The Closure Alternative)
22. Возрождение Профессора Протона (The Proton Resurgence)
23. Потенциал любовного заклятия (The Love Spell Potential)
24. Реакция "Бон Вояж" (The Bon Voyage Reaction)-

Доп. информация:

Media Info:

Ц Цитата: General
Unique ID : 225696631712561670863174651775090475061 (0xA9CB97132B6FDABD8A39AB21F784C035)
Complete name : D:\Video\The.Big.Bang.Theory.S06.1080p\The.Big.Bang.Theory.S06E01.1080p.mkv
Format : Matroska
Format version : Version 2
File size : 912 MiB
Duration : 21mn 7s
Overall bit rate : 6 037 Kbps
Encoded date : UTC 2012-10-08 16:19:42
Writing application : mkvmerge v5.8.0 ('No Sleep / Pillow') built on Sep 2 2012 15:37:04
Writing library : libebml v1.2.3 + libmatroska v1.3.0
Video
ID : 1
Format : AVC
Format/Info : Advanced Video Codec
Format profile : High@L4.0
Format settings, CABAC : Yes
Format settings, ReFrames : 4 frames
Codec ID : V_MPEG4/ISO/AVC
Duration : 21mn 7s
Bit rate : 5 149 Kbps
Width : 1 920 pixels
Height : 1 080 pixels
Display aspect ratio : 16:9
Frame rate : 23.976 fps
Color space : YUV
Chroma subsampling : 4:2:0
Bit depth : 8 bits
Scan type : Progressive
Bits/(Pixel*Frame) : 0.104
Stream size : 778 MiB (85%)
Language : English
Default : Yes
Forced : No
Color primaries : BT.709-5, BT.1361, IEC 61966-2-4, SMPTE RP177
Transfer characteristics : BT.709-5, BT.1361
Matrix coefficients : BT.709-5, BT.1361, IEC 61966-2-4 709, SMPTE RP177
Audio #1
ID : 2
Format : AC-3
Format/Info : Audio Coding 3
Mode extension : CM (complete main)
Codec ID : A_AC3
Duration : 21mn 7s
Bit rate mode : Constant
Bit rate : 384 Kbps
Channel(s) : 6 channels
Channel positions : Front: L C R, Side: L R, LFE
Sampling rate : 48.0 KHz
Bit depth : 16 bits
Compression mode : Lossy
Stream size : 58.0 MiB (6%)
Language : Russian
Default : Yes
Forced : No
Audio #2
ID : 3
Format : AC-3
Format/Info : Audio Coding 3
Mode extension : CM (complete main)
Codec ID : A_AC3
Duration : 21mn 7s
Bit rate mode : Constant
Bit rate : 384 Kbps
Channel(s) : 6 channels
Channel positions : Front: L C R, Side: L R, LFE
Sampling rate : 48.0 KHz
Bit depth : 16 bits
Compression mode : Lossy
Stream size : 58.0 MiB (6%)
Language : English
Default : No
Forced : No
Text
ID : 4
Format : UTF-8
Codec ID : S_TEXT/UTF8
Codec ID/Info : UTF-8 Plain Text
Language : English
Default : No
Forced : No

Скриншоты:

- - - - -
-
Показать сообщения:    

Текущее время: 19-Сен 19:48

Часовой пояс: UTC - 1


Вы не можете начинать темы
Вы не можете отвечать на сообщения
Вы не можете редактировать свои сообщения
Вы не можете удалять свои сообщения
Вы не можете голосовать в опросах
Вы не можете прикреплять файлы к сообщениям
Вы не можете скачивать файлы

!ВНИМАНИЕ!
Сайт не предоставляет электронные версии произведений, а занимается лишь коллекционированием и каталогизацией ссылок, присылаемых и публикуемых на форуме нашими читателями. Если вы являетесь правообладателем какого-либо представленного материала и не желаете, чтобы ссылка на него находилась в нашем каталоге, свяжитесь с нами, и мы незамедлительно удалим ее. Файлы для обмена на трекере предоставлены пользователями сайта, и администрация не несет ответственности за их содержание. Просьба не заливать файлы, защищенные авторскими правами, а также файлы нелегального содержания!