Ивановский Торрент трекер
Яндекс.Погода
 

[Цитировать]
HUNTER

Тем тяжелее падение / The Harder They Fall
Страна: США
Студия: Columbia Pictures Corporation
Жанр: фильм-нуар, драма, спорт
Год выпуска: 1956
Продолжительность: 01:48:47
Перевод: Профессиональный (двухголосый закадровый)
Cубтитры: русские, английские
Оригинальная аудиодорожка: английский
Режиссер: Марк Робсон / Mark Robson
В ролях: Хэмфри Богарт, Род Стайгер, Ян Стерлинг, Майк Лэйн, Макс Баэр, Джерси Джо Уолкотт, Эдвард Эндрюс, Харольд Стоун, Карлос Монтальбан, Неимайя Персофф, Феличе Орланди, Херби Фэй, Расти Лэйн, Джек Элбертсон
Описание: Спортивный журналист Эдди Виллис вращается в мире профессионального бокса и становится, как сейчас говорят, «пиарщиком» начинающего боксера. Проработав 17 лет в газете и не заработав ничего на «черный» день, он соглашается вести грязную «раскрутку» бездарного, слабого боксера внушительной внешности и роста.
«Бокс — это балет, шоу, на котором делают деньги», — так говорит ему полукриминальный промоутер Род Стайгер, — но ведь в балете не убивают в раздевалке танцоров, отказывающихся танцевать. Только сейчас Эдди понимает всю подноготную этого безжалостного мира, где менеджеры жестоко и без всяких сантиментов манипулируют своими боксерами. Хватит ли у него силы воли восстать против хорошо отлаженной машины криминального бизнеса?

Sample
Тип релиза: WEB-DL 720p - SbR
Контейнер: MKV
Видео: MPEG4 AVC Video, H264, 16:9, 1278x720, 23.976 fps, 4016 kbps
Аудио: Russian (AC3, 2 ch, 192 kbps, 16 bits, 48.0 KHz) - DVO
Аудио 2: English (AC3, 2 ch, 192 kbps, 16 bits, 48.0 KHz) - оригинал
Формат субтитров: softsub (SRT)

MediaInfo

General
Unique ID : 234562421006367069777051323472847927848 (0xB077143C412FE104955C00EFC6617A28)
Complete name : E:\1\Тем тяжелее падение\The Harder They Fall 1956 WEB-DL 720p-SbR.mkv
Format : Matroska
Format version : Version 4 / Version 2
File size : 3.41 GiB
Duration : 1h 48mn
Overall bit rate : 4 489 Kbps
Encoded date : UTC 2014-08-24 07:29:24
Writing application : mkvmerge v6.1.0 ('Old Devil') built on Mar 2 2013 14:32:37
Writing library : libebml v1.3.0 + libmatroska v1.4.0
Attachment : Yes
Video
ID : 1
Format : AVC
Format/Info : Advanced Video Codec
Format profile : High@L3.1
Format settings, CABAC : No
Format settings, ReFrames : 2 frames
Codec ID : V_MPEG4/ISO/AVC
Duration : 1h 48mn
Bit rate : 4 016 Kbps
Width : 1 278 pixels
Height : 720 pixels
Display aspect ratio : 16:9
Frame rate mode : Constant
Frame rate : 23.976 fps
Color space : YUV
Chroma subsampling : 4:2:0
Bit depth : 8 bits
Scan type : Progressive
Bits/(Pixel*Frame) : 0.182
Stream size : 3.05 GiB (89%)
Language : English
Default : Yes
Forced : No
Color primaries : BT.709
Transfer characteristics : BT.709
Matrix coefficients : BT.709
Audio #1
ID : 2
Format : AC-3
Format/Info : Audio Coding 3
Mode extension : CM (complete main)
Format settings, Endianness : Big
Codec ID : A_AC3
Duration : 1h 48mn
Bit rate mode : Constant
Bit rate : 192 Kbps
Channel count : 2 channels
Channel positions : Front: L R
Sampling rate : 48.0 KHz
Bit depth : 16 bits
Compression mode : Lossy
Stream size : 149 MiB (4%)
Language : Russian
Default : Yes
Forced : No
Audio #2
ID : 3
Format : AC-3
Format/Info : Audio Coding 3
Mode extension : CM (complete main)
Format settings, Endianness : Big
Codec ID : A_AC3
Duration : 1h 48mn
Bit rate mode : Constant
Bit rate : 192 Kbps
Channel count : 2 channels
Channel positions : Front: L R
Sampling rate : 48.0 KHz
Bit depth : 16 bits
Compression mode : Lossy
Stream size : 149 MiB (4%)
Language : English
Default : No
Forced : No
Text #1
ID : 4
Format : UTF-8
Codec ID : S_TEXT/UTF8
Codec ID/Info : UTF-8 Plain Text
Language : Russian
Default : No
Forced : No
Text #2
ID : 5
Format : UTF-8
Codec ID : S_TEXT/UTF8
Codec ID/Info : UTF-8 Plain Text
Language : English
Default : No
Forced : No
Menu
00:00:00.000 : en:Start
00:03:58.000 : en:Eddie Willis, ex-sportswriter
00:06:57.000 : en:Powder puff punch & a glass jaw
00:09:17.000 : en:Deal
00:14:40.000 : en:Freak attraction
00:15:10.000 : en:The Fourth Estate
00:17:27.000 : en:Sailor Rigazzo vs. Toro
00:21:52.000 : en:In the soup
00:25:49.000 : en:Settling the account
00:32:15.000 : en:Managers meeting
00:35:18.000 : en:The fix is in
00:37:38.000 : en:The right thing
00:43:02.000 : en:Chief Firebird's pride
00:44:23.000 : en:The chicken-wire routine
00:48:02.000 : en:Punched out
00:51:12.000 : en:Visa revoked
00:54:09.000 : en:"Help me, Eddie!"
00:59:57.000 : en:Gus Dundee vs. Toro
01:06:09.000 : en:At the hospital
01:09:43.000 : en:Money means everything
01:15:05.000 : en:Buddy's beef
01:19:42.000 : en:A letter from Mother
01:20:36.000 : en:A credit to his profession
01:23:52.000 : en:The truth
01:29:16.000 : en:The Main Event
01:36:23.000 : en:$49.07
01:42:17.000 : en:Transferal of shares
01:44:32.000 : en:Payback

Скриншоты

Показать сообщения:    

Текущее время: 16-Окт 21:10

Часовой пояс: UTC - 1


Вы не можете начинать темы
Вы не можете отвечать на сообщения
Вы не можете редактировать свои сообщения
Вы не можете удалять свои сообщения
Вы не можете голосовать в опросах
Вы не можете прикреплять файлы к сообщениям
Вы не можете скачивать файлы

!ВНИМАНИЕ!
Сайт не предоставляет электронные версии произведений, а занимается лишь коллекционированием и каталогизацией ссылок, присылаемых и публикуемых на форуме нашими читателями. Если вы являетесь правообладателем какого-либо представленного материала и не желаете, чтобы ссылка на него находилась в нашем каталоге, свяжитесь с нами, и мы незамедлительно удалим ее. Файлы для обмена на трекере предоставлены пользователями сайта, и администрация не несет ответственности за их содержание. Просьба не заливать файлы, защищенные авторскими правами, а также файлы нелегального содержания!