Важное объявление!
У Нас Все раздачи мультитрекерные, при нуле пиров в релизах, можете смело вставать на закачку!
 
Автор Сообщение

HUNTER

Стаж:
4 года 5 месяцев
Сообщений:
60874

Репутация: 101

[+] [-]
Вне форума [Профиль] [ЛС]

Темный сахар / Brown Sugar
Страна: США
Студия: 20th Century Fox Film Corporation
Жанр: мелодрама, комедия, музыка
Год выпуска: 2002
Продолжительность: 01:49:19
Перевод: Профессиональный (многоголосый закадровый) R5
Cубтитры: русские, английские
Оригинальная аудиодорожка: английский
Режиссер: Рик Фамуйива / Rick Famuyiwa
В ролях: Тэй Диггз, Санаа Лэтэн, Мос Деф, Николь Ари Паркер, Борис Коджо, Куин Латифа, Эрик Уэйнер, Реджи Уайнс, Уенделл Пирс, Кул Дж. Рэп, Пит Рок, Де Ла Соул, Тарик Троттер, Жермен Дюпри, Талиб Квели, Коммон, Расселл Симмонс, Биг Дэдди Кэйн, Метод Мэн, Мелисса Мартинез, Марк Джон Джеффрис, Венида Эванс, Бретти Тейлор, Донна ДюПлантье, Розалин Коулмэн, Робин Т. Киркси, Стерлинг К. Браун, Кофи Боаке, Джерри Пинсон, Сэм МакФерсон
Описание: Cидни и Дре знакомы с самого детства. Она — музыкальный критик. Он — владелец звукозаписывающей компании. Но, несмотря на то, что все эти годы их связывает только дружба, известие о предстоящей женитьбе Дре повергает Сидни в шок. Девушка внезапно осознает, что Дре — главная любовь ее жизни. И теперь она готова на все, чтобы не потерять ее…

Sample
Тип релиза: WEB-DL 720p
Контейнер: MKV
Видео: MPEG4 AVC Video, H264, 16:9, 1280x694, 23.976 fps, 3958 kbps
Аудио: Russian (AC3, 6 ch, 448 kbps, 16 bits, 48.0 KHz) - MVO
Аудио 2: English (AC3, 6 ch, 384 kbps, 16 bits, 48.0 KHz) - оригинал
Формат субтитров: softsub (SRT)

MediaInfo

General
Unique ID : 237881683730196537968943987727176259056 (0xB2F65885CE7191D1A61FF606A26B55F0)
Complete name : E:\Brown Sugar 2002 WEB-DL 720p.mkv
Format : Matroska
Format version : Version 4 / Version 2
File size : 3.73 GiB
Duration : 1h 49mn
Overall bit rate : 4 887 Kbps
Encoded date : UTC 2015-10-10 22:08:12
Writing application : mkvmerge v6.1.0 ('Old Devil') built on Mar 2 2013 14:32:37
Writing library : libebml v1.3.0 + libmatroska v1.4.0
Video
ID : 1
Format : AVC
Format/Info : Advanced Video Codec
Format profile : High@L3.1
Format settings, CABAC : No
Format settings, ReFrames : 2 frames
Codec ID : V_MPEG4/ISO/AVC
Duration : 1h 49mn
Bit rate : 3 958 Kbps
Width : 1 280 pixels
Height : 694 pixels
Display aspect ratio : 1.85:1
Frame rate mode : Constant
Frame rate : 23.976 fps
Color space : YUV
Chroma subsampling : 4:2:0
Bit depth : 8 bits
Scan type : Progressive
Bits/(Pixel*Frame) : 0.186
Stream size : 3.02 GiB (81%)
Language : English
Default : Yes
Forced : No
Color primaries : BT.709
Transfer characteristics : BT.709
Matrix coefficients : BT.709
Audio #1
ID : 2
Format : AC-3
Format/Info : Audio Coding 3
Mode extension : CM (complete main)
Format settings, Endianness : Big
Codec ID : A_AC3
Duration : 1h 49mn
Bit rate mode : Constant
Bit rate : 448 Kbps
Channel count : 6 channels
Channel positions : Front: L C R, Side: L R, LFE
Sampling rate : 48.0 KHz
Bit depth : 16 bits
Compression mode : Lossy
Stream size : 350 MiB (9%)
Language : Russian
Default : Yes
Forced : No
Audio #2
ID : 3
Format : AC-3
Format/Info : Audio Coding 3
Mode extension : CM (complete main)
Format settings, Endianness : Big
Codec ID : A_AC3
Duration : 1h 49mn
Bit rate mode : Constant
Bit rate : 384 Kbps
Channel count : 6 channels
Channel positions : Front: L C R, Side: L R, LFE
Sampling rate : 48.0 KHz
Bit depth : 16 bits
Compression mode : Lossy
Stream size : 300 MiB (8%)
Language : English
Default : No
Forced : No
Text #1
ID : 4
Format : UTF-8
Codec ID : S_TEXT/UTF8
Codec ID/Info : UTF-8 Plain Text
Language : Russian
Default : No
Forced : No
Text #2
ID : 5
Format : UTF-8
Codec ID : S_TEXT/UTF8
Codec ID/Info : UTF-8 Plain Text
Language : English
Default : No
Forced : No
Menu
00:00:00.000 : en:Chapter 01
00:01:18.000 : en:Chapter 02
00:07:08.000 : en:Chapter 03
00:11:22.000 : en:Chapter 04
00:15:57.000 : en:Chapter 05
00:18:14.000 : en:Chapter 06
00:21:11.000 : en:Chapter 07
00:26:23.000 : en:Chapter 08
00:32:10.000 : en:Chapter 09
00:36:19.000 : en:Chapter 10
00:40:15.000 : en:Chapter 11
00:45:57.000 : en:Chapter 12
00:53:51.000 : en:Chapter 13
00:57:08.000 : en:Chapter 14
01:04:14.000 : en:Chapter 15
01:13:32.000 : en:Chapter 16
01:20:04.000 : en:Chapter 17
01:30:19.000 : en:Chapter 18
01:37:52.000 : en:Chapter 19
01:45:10.000 : en:Chapter 20

Скриншоты


_________________
Показать сообщения:    

Текущее время: Сегодня 00:46

Часовой пояс: GMT



Вы не можете начинать темы
Вы не можете отвечать на сообщения
Вы не можете редактировать свои сообщения
Вы не можете удалять свои сообщения
Вы не можете голосовать в опросах
Вы не можете прикреплять файлы к сообщениям
Вы не можете скачивать файлы
Наши партнеры: интернет магазин Ивановского трикотажа textilla.ru