Ивановский Торрент трекер
Яндекс.Погода
 

[Цитировать]
Vanya_o3

Темный потокDark Feed-
Страна: США
Жанр: ужасы
Год выпуска: 2013
Продолжительность: 01:25:57-Перевод: Одноголосый закадровый [den904]
Субтитры: нет
Режиссер: Майкл Расмуссен / Michael Rasmussen, Шон Расмуссен / Shawn Rasmussen
В ролях: Эвалена Мари, Дэйна Казинс, Тори Наджент, Ребекка Уитехёрст, Майкл Скотт Аллен, Andy Rudick, Джейсон Бобьен, Джессика Лорен Напье, Джонатан Томсон, Ивэн Сэндерсон, Hardy Winburn, Бри Элрод-Описание: Съемочная группа отправляется в заброшенную психиатрическую больницу с темным прошлым, чтобы снять низкобюджетный фильм ужасов. Они и не подозревали, насколько дорого в итоге им придётся заплатить…-


MPAA: R - Лицам до 17 лет обязательно присутствие взрослого-Сценарий: Майкл Расмуссен / Michael Rasmussen, Шон Расмуссен / Shawn Rasmussen
Продюсер: Майкл Расмуссен / Michael Rasmussen, Шон Расмуссен / Shawn Rasmussen, Гленн Купер / Glenn Cooper, Роджер Данчик / Roger Danchik, Jonathan Huberman
Оператор: Monday Sunnlinn-Качество: WEB-DLRip (Исходник WEB-DL 720p [NGB])
Контейнер: AVI
Видео: XviD, 720x400 (16:9), 1975 kbps, 23,976 fps, 0,286 bpp
Аудио: AC3 / 5.1 / 48 kHz / 448 kbps / 16 bit-

Media Info

General
Complete name : C:\Downloads\Video\Dark.Feed.2013.HDRip.avi
Format : AVI
Format/Info : Audio Video Interleave
File size : 1.46 GiB
Duration : 1h 25mn
Overall bit rate : 2 433 Kbps
Writing application : VirtualDubMod 1.5.10.3 | www.virtualdub-fr.org || (build 2550/release)
Writing library : VirtualDubMod build 2550/release
Video
ID : 0
Format : MPEG-4 Visual
Format profile : Advanced Simple@L5
Format settings, BVOP : 2
Format settings, QPel : No
Format settings, GMC : No warppoints
Format settings, Matrix : Default (MPEG)
Codec ID : XVID
Codec ID/Hint : XviD
Duration : 1h 25mn
Bit rate : 1 976 Kbps
Width : 720 pixels
Height : 400 pixels
Display aspect ratio : 16:9
Frame rate : 23.976 fps
Color space : YUV
Chroma subsampling : 4:2:0
Bit depth : 8 bits
Scan type : Progressive
Compression mode : Lossy
Bits/(Pixel*Frame) : 0.286
Stream size : 1.19 GiB (81%)
Writing library : XviD 1.2.1 (UTC 2008-12-04)
Audio
ID : 1
Format : AC-3
Format/Info : Audio Coding 3
Mode extension : CM (complete main)
Codec ID : 2000
Duration : 1h 25mn
Bit rate mode : Constant
Bit rate : 448 Kbps
Channel(s) : 6 channels
Channel positions : Front: L C R, Side: L R, LFE
Sampling rate : 48.0 KHz
Bit depth : 16 bits
Compression mode : Lossy
Stream size : 275 MiB (18%)
Alignment : Split accross interleaves
Interleave, duration : 42 ms (1.00 video frame)
Interleave, preload duration : 500 ms

Скриншот с названием фильма

Скриншоты

0 человек читают эту тему: 0 пользователей, 0 скрытых пользователей, 0 гостей

Показать сообщения:    

Текущее время: 24-Авг 03:42

Часовой пояс: UTC - 1


Вы не можете начинать темы
Вы не можете отвечать на сообщения
Вы не можете редактировать свои сообщения
Вы не можете удалять свои сообщения
Вы не можете голосовать в опросах
Вы не можете прикреплять файлы к сообщениям
Вы не можете скачивать файлы

!ВНИМАНИЕ!
Сайт не предоставляет электронные версии произведений, а занимается лишь коллекционированием и каталогизацией ссылок, присылаемых и публикуемых на форуме нашими читателями. Если вы являетесь правообладателем какого-либо представленного материала и не желаете, чтобы ссылка на него находилась в нашем каталоге, свяжитесь с нами, и мы незамедлительно удалим ее. Файлы для обмена на трекере предоставлены пользователями сайта, и администрация не несет ответственности за их содержание. Просьба не заливать файлы, защищенные авторскими правами, а также файлы нелегального содержания!