Важное объявление!
У Нас Все раздачи мультитрекерные, при нуле пиров в релизах, можете смело вставать на закачку!
 
Автор Сообщение

HUNTER

Стаж:
4 года 11 месяцев
Сообщений:
66009

Репутация: 101

[+] [-]
Вне форума [Профиль] [ЛС]

Телескопы
Дата/Год выпуска: 1981
Страна: СССР
Жанр: научно-популярный, астрономия
Продолжительность: 00:43:00
Перевод: Не требуется
Режиссер: Леонид Сикорук
Описание: Цикл фильмов Новосибирского ТВ по астрономии
качество: VHSRip
формат: AVI
Видео: Xvid 592x464 25fps 781kbps
Аудио: MP3 44100Hz mono 64kbps

MediaInfo

GeneralComplete name : C:\Телескопы\Телескопы 1 серия.aviFormat : AVIFormat/Info : Audio Video InterleaveFile size : 101 MiBDuration : 16mn 29sOverall bit rate : 855 KbpsWriting application : VirtualDubMod 1.5.10.3 | www.virtualdub-fr.org || (build 2550/release)Writing library : VirtualDubMod build 2550/release
VideoID : 0Format : MPEG-4 VisualFormat profile : Advanced Simple@L5Format settings, BVOP : 1Format settings, QPel : NoFormat settings, GMC : No warppointsFormat settings, Matrix : Default (H.263)Codec ID : XVIDCodec ID/Hint : XviDDuration : 16mn 29sBit rate : 781 KbpsWidth : 592 pixelsHeight : 464 pixelsDisplay aspect ratio : 1.276Frame rate : 25.000 fpsColor space : YUVChroma subsampling : 4:2:0Bit depth : 8 bitsScan type : ProgressiveCompression mode : LossyBits/(Pixel*Frame) : 0.114Stream size : 92.1 MiB (91%)Writing library : XviD 1.2.1 (UTC 2008-12-04)
AudioID : 1Format : MPEG AudioFormat version : Version 1Format profile : Layer 3Codec ID : 55Codec ID/Hint : MP3Duration : 16mn 29sBit rate mode : ConstantBit rate : 64.0 KbpsChannel(s) : 1 channelSampling rate : 44.1 KHzCompression mode : LossyStream size : 7.55 MiB (7%)Alignment : Split accross interleavesInterleave, duration : 40 ms (1.00 video frame)Interleave, preload duratio : 500 msWriting library : LAME3.99rEncoding settings : -m m -V 4 -q 2 -lowpass 16.5 -b 64

Скриншоты


_________________
Показать сообщения:    

Текущее время: Сегодня 13:32

Часовой пояс: GMT



Вы не можете начинать темы
Вы не можете отвечать на сообщения
Вы не можете редактировать свои сообщения
Вы не можете удалять свои сообщения
Вы не можете голосовать в опросах
Вы не можете прикреплять файлы к сообщениям
Вы не можете скачивать файлы