Телекинез / Carrie (Кимберли Пирс / Kimberly Peirce) [2013, США, Триллер, ужасы, драма, BD>DVD5 (Custom)] [Theatrical Cut] Dub Sub Rus+original eng :: Ивановский Торрент трекер
Важное объявление!
У Нас Все раздачи мультитрекерные, при нуле пиров в релизах, можете смело вставать на закачку!
 
Автор Сообщение

HUNTER

Стаж:
4 года 11 месяцев
Сообщений:
66047

Репутация: 101

[+] [-]
Вне форума [Профиль] [ЛС]

Телекинез / Carrie-
Страна: США
Студия: Metro-Goldwyn-Mayer, Screen Gems
Жанр: Триллер, ужасы, драма
Год выпуска: 2013
Продолжительность: 01:39:35-Перевод: Профессиональный (дублированный)
Cубтитры: русские, украинские, английские
Оригинальная аудиодорожка: английский-Режиссер: Кимберли Пирс / Kimberly Peirce
В ролях: Хлоя Грейс Морец, Джулианна Мур, Джуди Грир, Портия Даблдэй, Габриэлла Уайлд, Алекс Расселл, Зои Белкин, Энсел Эльгорт, Саманта Вайнштейн, Карисса Стрэйн
Описание: Невзрачная старшеклассница по имени Кэрри с рождения обладает способностями телекинеза. Давление со стороны фанатично религиозной мамочки и постоянные издевки сверстников лишь способствует развитию ее сверхъестественных способностей. На выпускном одноклассники решают жестоко подшутить над ней, что приводит к фатальным последствиям.-Доп. информация: Релиз сделан из ремукса, скаченного в сети. Оттуда же взяты главы, аудиодорожки и субтитры. Меню самодельное. Двд собрал в DVD Lab. Видео сжато Pro Coder в 2 прохода по этой инструкции. За столь ценное руководство спасибо Mikky72. Отдельная благодарность уходит ZVNV, который стойко выдержал испытание моими глупыми и не очень вопросами Еще одно спасибо AlsKnight за решение проблемы с кадрами.-Релиз групп: -
СЭМПЛ
-Меню: Есть, на русском языке, статичное, озвученное-Тип релиза: DVD5 (Custom)
Контейнер: DVD-Video
Видео: NTSC 16:9 (720x480) VBR
Аудио : Русский (Dolby AC3, 6 ch, 448 кб/с, дубляж)
Аудио 2: Английский (Dolby AC3, 6 ch, 448 кб/с)-

MI исходника

Формат : Matroska
Версия формата : Version 2
Размер файла : 23,1 Гбайт
Продолжительность : 1 ч. 39 м.
Режим общего битрейта : Переменный
Общий поток : 33,2 Мбит/сек
Название фильма : by bog347
Дата кодирования : UTC 2014-02-04 03:26:24
Программа кодирования : mkvmerge v6.7.0 ('Back to the Ground') 32bit built on Jan 8 2014 15:03:17
Библиотека кодирования : libebml v1.3.0 + libmatroska v1.4.1
Видео
Идентификатор : 1
Формат : AVC
Формат/Информация : Advanced Video Codec
Профиль формата : High@L4.1
Параметр CABAC формата : Да
Параметр ReFrames формата : 4 кадра
Идентификатор кодека : V_MPEG4/ISO/AVC
Продолжительность : 1 ч. 39 м.
Вид битрейта : Переменный
Битрейт : 29,1 Мбит/сек
Максимальный битрейт : 30,0 Мбит/сек
Ширина : 1920 пикселей
Высота : 1080 пикселей
Соотношение сторон : 16:9
Частота кадров : 23,976 кадра/сек
Цветовое пространство : YUV
Субдискретизация насыщенности : 4:2:0
Битовая глубина : 8 бит
Тип развёртки : Прогрессивная
Бит/(Пиксели*Кадры) : 0.586
Размер потока : 20,3 Гбайт (88%)
Язык : Russian
Аудио #1
Идентификатор : 2
Формат : DTS
Формат/Информация : Digital Theater Systems
Идентификатор кодека : A_DTS
Продолжительность : 1 ч. 39 м.
Вид битрейта : Постоянный
Битрейт : 755 Кбит/сек
Каналы : 6 каналов
Расположение каналов : Front: L C R, Side: L R, LFE
Частота : 48,0 КГц
Битовая глубина : 24 бит
Метод сжатия : С потерями
Размер потока : 538 Мбайт (2%)
Язык : Russian
Аудио #2
Идентификатор : 3
Формат : AC-3
Формат/Информация : Audio Coding 3
Расширение режима : CM (complete main)
Идентификатор кодека : A_AC3
Продолжительность : 1 ч. 39 м.
Вид битрейта : Постоянный
Битрейт : 640 Кбит/сек
Каналы : 6 каналов
Расположение каналов : Front: L C R, Side: L R, LFE
Частота : 48,0 КГц
Битовая глубина : 16 бит
Метод сжатия : С потерями
Размер потока : 456 Мбайт (2%)
Язык : Russian
Аудио #3
Идентификатор : 4
Формат : AC-3
Формат/Информация : Audio Coding 3
Расширение режима : CM (complete main)
Идентификатор кодека : A_AC3
Продолжительность : 1 ч. 39 м.
Вид битрейта : Постоянный
Битрейт : 448 Кбит/сек
Каналы : 6 каналов
Расположение каналов : Front: L C R, Side: L R, LFE
Частота : 48,0 КГц
Битовая глубина : 16 бит
Метод сжатия : С потерями
Размер потока : 319 Мбайт (1%)
Язык : Ukrainian
Аудио #4
Идентификатор : 5
Формат : DTS
Формат/Информация : Digital Theater Systems
Профиль формата : MA / Core
Идентификатор кодека : A_DTS
Продолжительность : 1 ч. 39 м.
Вид битрейта : Переменный
Битрейт : 1576 Кбит/сек / 1510 Кбит/сек
Каналы : 6 каналов
Расположение каналов : Front: L C R, Side: L R, LFE
Частота : 48,0 КГц
Битовая глубина : 24 бит
Метод сжатия : Без потерь / Lossy
Язык : English
Текст #1
Идентификатор : 6
Формат : UTF-8
Идентификатор кодека : S_TEXT/UTF8
Идентификатор кодека/Информация : UTF-8 Plain Text
Заголовок : Forced
Язык : Russian
Текст #2
Идентификатор : 7
Формат : UTF-8
Идентификатор кодека : S_TEXT/UTF8
Идентификатор кодека/Информация : UTF-8 Plain Text
Язык : Russian
Текст #3
Идентификатор : 8
Формат : UTF-8
Идентификатор кодека : S_TEXT/UTF8
Идентификатор кодека/Информация : UTF-8 Plain Text
Заголовок : Forced
Язык : Ukrainian
Текст #4
Идентификатор : 9
Формат : UTF-8
Идентификатор кодека : S_TEXT/UTF8
Идентификатор кодека/Информация : UTF-8 Plain Text
Язык : Ukrainian
Меню
00:00:00.000 : en:00:00:00.000
00:04:14.546 : en:00:04:14.546
00:06:37.856 : en:00:06:37.856
00:10:07.649 : en:00:10:07.649
00:12:03.681 : en:00:12:03.681
00:14:46.177 : en:00:14:46.177
00:18:50.463 : en:00:18:50.463
00:23:15.060 : en:00:23:15.060
00:26:51.401 : en:00:26:51.401
00:30:50.974 : en:00:30:50.974
00:32:27.863 : en:00:32:27.863
00:36:18.093 : en:00:36:18.093
00:38:20.340 : en:00:38:20.340
00:41:47.755 : en:00:41:47.755
00:46:22.196 : en:00:46:22.196
00:51:01.850 : en:00:51:01.850
00:53:09.853 : en:00:53:09.853
00:55:47.678 : en:00:55:47.678
01:00:52.065 : en:01:00:52.065
01:04:02.338 : en:01:04:02.338
01:07:03.311 : en:01:07:03.311
01:09:38.383 : en:01:09:38.383
01:13:05.381 : en:01:13:05.381
01:18:25.159 : en:01:18:25.159
01:22:46.712 : en:01:22:46.712
01:25:17.863 : en:01:25:17.863
01:29:25.360 : en:01:29:25.360
01:33:36.402 : en:01:33:36.402

DVDInfo

Size: 4.35 Gb ( 4 560 776 KBytes ) - DVD-5
Enabled regions: 1, 2, 3, 4, 5, 6, 7, 8
VTS_01 :
Play Length: 01:39:35
Video: NTSC 16:9 (720x480) VBR, Auto Pan&Scan
Audio:
Russian (Dolby AC3, 6 ch)
English (Dolby AC3, 6 ch)
Subtitles:
Russian
Ukrainian
English
Menu Video:
NTSC 4:3 (720x480) VBR
Menu English Language Unit :
Root Menu

Скриншоты меню

Скриншоты

Скрипт

LoadPlugin("C:\Users\SkyWalker\Desktop\DGDecodeNV\DGDecodeNV.dll")
DGSource("project.dgi") #если в исходнике отсутствуют артефакты
LoadPlugin("C:\Program Files\AutoYUY2\AutoYUY2.dll") #более медленный, но качественный аналог ConvertToYUY2()
AutoYUY2()
LoadPlugin("C:\Program Files\ColorMatrix\ColorMatrix.dll")
ColorMatrix(mode="Rec.709->Rec.601", inputFR=false, clamp=0) #корректировка цветовой шкалы, если проверка показывает 16-235
AssumeFPS("ntsc_film")
BicubicResize(720, 480, 0, 0.5) #ресайз методом Catmull-Rom spline
AddBorders (0,0,0,0) #bbb=00

Программы, используемые при создание этого релиза

Видео
Rhozet Carbon Coder - конвертация видео
AviSynth - обработка видео
DGDecodeNV - индексирование
Програмы для разборки/сборки ДВД
PgcDemux - демукс исходного DVD
tsMuxeR - разборка ремукса
MuxMan - сборка видео
Работа со звуком
TranzcodeGUI - извлечение wav
Sonic Foundry Soft Encode - кодирование и сборка ac3 дорожки
Работа с субтитрами
DVDSubEdit - корректировка таймингов и расположения на экране субтитров
Работа с меню и реавторинг
Adobe Photoshop - редактирование меню
DVDReMakePro - реавторинг диска

_________________
Показать сообщения:    

Текущее время: Сегодня 10:40

Часовой пояс: GMT



Вы не можете начинать темы
Вы не можете отвечать на сообщения
Вы не можете редактировать свои сообщения
Вы не можете удалять свои сообщения
Вы не можете голосовать в опросах
Вы не можете прикреплять файлы к сообщениям
Вы не можете скачивать файлы