Важное объявление!
У Нас Все раздачи мультитрекерные, при нуле пиров в релизах, можете смело вставать на закачку!
 
Автор Сообщение

HUNTER

Стаж:
4 года 6 месяцев
Сообщений:
60910

Репутация: 101

[+] [-]
Вне форума [Профиль] [ЛС]

Тектоник - Базовий курс «Electro Dance»-"Стань "своим" на танцполе!"-
Год выпуска: 2009
Страна: Россия
Сайт производителя: отсутствует
Тематика: клубные танцы
Тип материала: Обучающие видео-Продолжительность: 01:04:09
Автор: Екатерина Быховская-Язык: Русский
Субтитры: отсутствуют-Описание: Tecktonik — это не только известный торговый бренд и энергетический напиток. Это еще и ультрасовременный танец, получивший свое название в соответствии с вечеринкой "Tecktonik Кiller", которая вот уже несколько лет проводится в легендарном французском клубе "Metropolis".
Tecktonik, а если быть точными electro dance, — танцевальный стиль-микс, основывающийся на базе хип-хопа, локкинга, поппинга и техно. Его музыка — это, в основном, DJ-сеты: David Guetta, Yelle, Dess, Max В, DJ RV.B, Deepack, Grant и многие другие.
Узкие джинсы или черные брюки-дудочки, белый ремень, майка с яркими принтами или необычным рисунком, стильные кеды — такой минимальный стиль одежды tecktonik позволит свободно и комфортно двигаться на танцполе. Впрочем, не только на нем. Ведь tecktonik уже давно вышел за рамки клубной жизни — его танцуют даже на улице!
Этот видео-курс поможет вам освоить кажущиеся на первый взгляд сложными и непонятными движения tecktonik. Танцуя electro dance, вы не только раскроете новые возможности вашего тела, но и получите массу положительных эмоций!
-Качество: DVDRip
Формат: AVI
Видео кодек: XviD
Аудио кодек: AC3
Видео: 620 x 340 (1.824), 25 fps, XviD MPEG-4 ~1317 kbps avg, 0.25 bit/pixel
Аудио: 48 kHz, AC3, 2 ch, ~192.00 kbps avg-

MediaInfo

Код: copyText_writeLink('this.parentNode.parentNode.nextSibling.nextSibling'); Общее
Полное имя : E:\Обучение\Tecktonik.avi
Формат : AVI
Формат/Информация : Audio Video Interleave
Размер файла : 697 Мбайт
Продолжительность : 1 ч. 4 м.
Общий поток : 1519 Кбит/сек
Программа кодирования : VirtualDubMod 1.5.10.2 (build 2540/release)
Библиотека кодирования : VirtualDubMod build 2540/release
Видео
Идентификатор : 0
Формат : MPEG-4 Visual
Профиль формата : Advanced Simple@L5
Параметр BVOP формата : 2
Параметр QPel формата : Нет
Параметр GMC формата : Без точки перехода
Параметр матрицы формата : Default (H.263)
Режим смешивания : Сжатый битовый поток
Идентификатор кодека : XVID
Идентификатор кодека/Подсказка : XviD
Продолжительность : 1 ч. 4 м.
Битрейт : 1317 Кбит/сек
Ширина : 620 пикселей
Высота : 340 пикселей
Соотношение сторон : 1,85:1
Частота кадров : 25,000 кадров/сек
Цветовое пространство : YUV
Субдискретизация насыщенности : 4:2:0
Битовая глубина : 8 бит
Тип развёртки : Прогрессивная
Метод сжатия : С потерями
Бит/(Пиксели*Кадры) : 0.250
Размер потока : 605 Мбайт (87%)
Библиотека кодирования : XviD 1.2.0.dev47 (UTC 2006-11-01)
Аудио
Идентификатор : 1
Формат : AC-3
Формат/Информация : Audio Coding 3
Расширение режима : CM (complete main)
Параметр Endianness формата : Big
Идентификатор кодека : 2000
Продолжительность : 1 ч. 4 м.
Вид битрейта : Постоянный
Битрейт : 192 Кбит/сек
Каналы : 2 канала
Расположение каналов : Front: L R
Частота : 48,0 КГц
Битовая глубина : 16 бит
Метод сжатия : С потерями
Размер потока : 88,1 Мбайт (13%)
Выравнивание : Разделение по промежуткам
Продолжительность промежутка : 40 мс. (1,00 видеокадр)
Время предзагрузки промежутка : 500 мс.
- -

_________________
Показать сообщения:    

Текущее время: Сегодня 21:53

Часовой пояс: GMT



Вы не можете начинать темы
Вы не можете отвечать на сообщения
Вы не можете редактировать свои сообщения
Вы не можете удалять свои сообщения
Вы не можете голосовать в опросах
Вы не можете прикреплять файлы к сообщениям
Вы не можете скачивать файлы
Наши партнеры: интернет магазин Ивановского трикотажа textilla.ru