Важное объявление!
У Нас Все раздачи мультитрекерные, при нуле пиров в релизах, можете смело вставать на закачку!
 
Автор Сообщение

HUNTER

Стаж:
4 года 7 месяцев
Сообщений:
61531

Репутация: 101

[+] [-]
Вне форума [Профиль] [ЛС]

Тачки / Cars-Год выпуска: 2006
Страна: США
Жанр: мультфильм, комедия, приключения, семейный, спорт
Продолжительность: 01:56:36
Перевод: Дублированный-В ролях: Оуэн Уилсон, Пол Ньюман, Бонни Хант, Ларри Кейбл Гай, Чич Марин, Тони Шалхуб, Гуидо Куарони, Дженифер Льюис, Пол Дули, Майкл Уоллис, Джордж Карлин, Кэтрин Хелмонд, Джон Ратценбергер, Джо Рэнфт, Майкл Китон, Ричард Петти, Джереми Пивен, Боб Костас, Даррел Уалтрип, Ричард Кайнд, Эди МакКлерг
Режиссёр: Джон Лассетер, Джо Рэнфт-Описание: Неукротимый всвоем желании всегда и во всем побеждать гоночный автомобиль "Молния" Маккуин вдруг обнаруживает, что сбился с пути и застрял в маленьком захолустном городке Радиатор-Спрингс, что находится где-то на трассе 66 в Калифорнии. Участвуя в гонках на Кубок Поршня, где ему противостояли два очень опытных соперника, Маккуин совершенно не ожидал, что отныне ему придется общаться с персонажами совсем иного рода. Это, например, Салли — шикарный Порше 2002-го года выпуска, Док Хадсон — легковушка модели «Гудзон Хорнет», 1951-го года выпуска или Метр — ржавый грузовичок-эвакуатор. И все они помогают Маккуину понять, что в мире существуют некоторые более важные вещи, чем слава, призы и спонсоры…-Качество: BDRip
Формат: MKV
Видео кодек: x264
Аудио кодек: AC3
Видео: 1920x800 (2,40:1), 23.976 fps, 4730 kbps
Аудио: RUS 48 kHz | AC3 | 3/2 (L,C,R,l,r) + LFE ch | ~640.00 kbps avg | Дублированный |-

MediaInfo

Общее
Уникальный идентификатор : 194964690558761588857527542421549985417 (0x92ACD5647C2FE70C889A473E0EB3AE89)
Полное имя : E:\Скачки\Cars.2006.BDRip.1080p.Rus.mkv
Формат : Matroska
Версия формата : Version 2
Размер файла : 4,37 Гбайт
Продолжительность : 1 ч. 56 м.
Общий поток : 5371 Кбит/сек
Дата кодирования : UTC 2011-05-05 10:57:59
Программа кодирования : mkvmerge v4.0.0 ('The Stars were mine') сборка от Jun 6 2010 16:18:42
Библиотека кодирования : libebml v1.0.0 + libmatroska v1.0.0
Видео
Идентификатор : 1
Формат : AVC
Формат/Информация : Advanced Video Codec
Профиль формата : [url=mailto:High@L4.1]High@L4.1[/url]
Параметр CABAC формата : Да
Параметр ReFrames формата : 5 кадров
Идентификатор кодека : V_MPEG4/ISO/AVC
Продолжительность : 1 ч. 56 м.
Битрейт : 4730 Кбит/сек
Ширина : 1920 пикселей
Высота : 800 пикселей
Соотношение сторон : 2,40:1
Режим частоты кадров : Постоянный
Частота кадров : 23,976 кадра/сек
Цветовое пространство : YUV
Субдискретизация насыщенности : 4:2:0
Битовая глубина : 8 бит
Тип развёртки : Прогрессивная
Бит/(Пиксели*Кадры) : 0.128
Размер потока : 3,77 Гбайт (86%)
Библиотека кодирования : x264 core 115 r1947 b5a8ad7
Настройки программы : cabac=1 / ref=5 / deblock=1:0:0 / analyse=0x3:0x133 / me=umh / subme=10 / psy=1 / psy_rd=1.00:0.10 / mixed_ref=1 / me_range=24 / chroma_me=1 / trellis=2 / 8x8dct=1 / cqm=0 / deadzone=21,11 / fast_pskip=0 / chroma_qp_offset=-3 / threads=12 / sliced_threads=0 / nr=0 / decimate=1 / interlaced=0 / bluray_compat=0 / constrained_intra=0 / bframes=3 / b_pyramid=2 / b_adapt=2 / b_bias=0 / direct=3 / weightb=1 / open_gop=0 / weightp=2 / keyint=250 / keyint_min=23 / scenecut=40 / intra_refresh=0 / rc_lookahead=60 / rc=2pass / mbtree=1 / bitrate=4730 / ratetol=1.0 / qcomp=0.60 / qpmin=0 / qpmax=69 / qpstep=4 / cplxblur=20.0 / qblur=0.5 / ip_ratio=1.40 / aq=1:1.00
Язык : English
Default : Да
Forced : Нет
Аудио
Идентификатор : 2
Формат : AC-3
Формат/Информация : Audio Coding 3
Расширение режима : CM (complete main)
Параметр Endianness формата : Big
Идентификатор кодека : A_AC3
Продолжительность : 1 ч. 56 м.
Вид битрейта : Постоянный
Битрейт : 640 Кбит/сек
Каналы : 6 каналов
Расположение каналов : Front: L C R, Side: L R, LFE
Частота : 48,0 КГц
Битовая глубина : 16 бит
Метод сжатия : С потерями
Размер потока : 534 Мбайт (12%)
Язык : Russian
Default : Да
Forced : Нет
-

Скриншоты


_________________
Показать сообщения:    

Текущее время: Сегодня 02:54

Часовой пояс: GMT



Вы не можете начинать темы
Вы не можете отвечать на сообщения
Вы не можете редактировать свои сообщения
Вы не можете удалять свои сообщения
Вы не можете голосовать в опросах
Вы не можете прикреплять файлы к сообщениям
Вы не можете скачивать файлы
Наши партнеры: интернет магазин Ивановского трикотажа textilla.ru