Важное объявление!
У Нас Все раздачи мультитрекерные, при нуле пиров в релизах, можете смело вставать на закачку!
 
Автор Сообщение

HUNTER

Стаж:
4 года 9 месяцев
Сообщений:
65021

Репутация: 101

[+] [-]
Вне форума [Профиль] [ЛС]

| Все релизы мультфильма || BDRip 1080p, 8.35 GB |- P R E S E N T SТарзан / Tarzan-
Страна: Германия
Жанр: мультфильм, легенда, приключения, семейный
Продолжительность: 01:34:10
Год выпуска: 2013
Перевод: Профессиональный (полное дублирование)
Субтитры: русских нет-Режиссёр: Райнхард Клоосс / Reinhard Klooss
Роли озвучивали: Келлан Латс, Спенсер Лок, Тревор Ст. Джон, Лес Бабб, Брайан Блум, Брайан Хаски, Роберт Капрон, Джейми Рэй Ньюман, Марк Деклин, Джо Осмонд, Сесиль Фэй, Эдд Осмонд, Антон Зетерхольм, Ребекка Рини...
Роли дублировали: Станислав Тикунов, Наталья Терешкова, Сергей Смирнов, Андрей Казанцев, Томас Шлеккер, Василий Дахненко, Валерий Сторожик и др.- | | - Рекомендуется присутствие родителей-Описание: Во время крушения американского воздушного лайнера в джунглях погибли все пассажиры, выжил лишь один мальчик. Он стал приемышем в стае диких обезьян, которые выкормили, вырастили его, научили выживать в этом жестком мире естественного отбора... Пришло время, и теперь мощный и ловкий, он должен защитить свой мир от врагов. Но главное - он должен снова стать человеком...-Доп. информация: BDRip 1080p сделан с Blu-Ray диска Tarzan 2013 2D+3D SPA BluRay 1080p AVC DTS-HD HR5.1-CHDBits (Spanish Transfer).-Сэмпл/Sample (71.9 MB, 1 минута)-Качество: BDRip 1080p
Формат: MKV
Видео: 1920x804 (2.388:1), 23,976 fps, ~9675 kbps avg, 0.261 bit/pixel
Аудио #1: Русский, DTS / 5.1 / 48 kHz / 1509 kbps / 16 bit - Дубляж | BD RUS
Аудио #2: English, DTS / 5.1 / 48 kHz / 1509 kbps / 24 bit - Dubbing
Субтитры: English (Full)
Навигация по главам: есть (16 не именованных глав)
MediaInfo / x264Log
x264Log
raw [info]: 1920x804p 1:1 @ 24000/1001 fps (cfr)x264 [info]: using SAR=1/1x264 [info]: using cpu capabilities: MMX2 SSE2Fast SSSE3 SSE4.2 AVX XOP FMA4 FMA3 LZCNT BMI1x264 [info]: profile High, level 4.1x264 [info]: frame I:1456 Avg QP:14.55 size:227186 PSNR Mean Y:49.01 U:51.17 V:51.32 Avg:49.61 Global:48.56x264 [info]: frame P:36339 Avg QP:16.82 size: 89838 PSNR Mean Y:46.91 U:49.38 V:49.61 Avg:47.58 Global:46.17x264 [info]: frame B:97662 Avg QP:18.97 size: 33153 PSNR Mean Y:46.16 U:49.01 V:49.24 Avg:46.90 Global:45.39x264 [info]: consecutive B-frames: 5.8% 6.3% 16.8% 16.4% 7.9% 44.0% 1.0% 0.8% 0.3% 0.3% 0.1% 0.1% 0.2%x264 [info]: mb I I16..4: 6.7% 55.0% 38.2%x264 [info]: mb P I16..4: 1.8% 18.0% 7.3% P16..4: 22.5% 25.9% 11.3% 2.4% 0.2% skip:10.6%x264 [info]: mb B I16..4: 0.5% 3.9% 1.3% B16..8: 27.4% 20.6% 3.3% direct:10.8% skip:32.2% L0:38.1% L1:37.7% BI:24.2%x264 [info]: 8x8 transform intra:66.2% inter:49.6%x264 [info]: coded y,uvDC,uvAC intra: 82.8% 84.2% 61.7% inter: 31.9% 30.3% 6.8%x264 [info]: i16 v,h,dc,p: 44% 17% 9% 30%x264 [info]: i8 v,h,dc,ddl,ddr,vr,hd,vl,hu: 16% 16% 15% 7% 8% 8% 9% 10% 12%x264 [info]: i4 v,h,dc,ddl,ddr,vr,hd,vl,hu: 41% 13% 15% 4% 6% 6% 5% 5% 5%x264 [info]: i8c dc,h,v,p: 37% 26% 24% 13%x264 [info]: Weighted P-Frames: Y:3.2% UV:2.6%x264 [info]: ref P L0: 68.1% 10.5% 14.6% 5.9% 0.9% 0.0%x264 [info]: ref B L0: 91.0% 7.6% 1.4%x264 [info]: ref B L1: 96.0% 4.0%x264 [info]: SSIM Mean Y:0.9883990 (19.355db)x264 [info]: PSNR Mean Y:46.395 U:49.130 V:49.365 Avg:47.114 Global:45.615 kb/s:9675.89encoded 135457 frames, 5.57 fps, 9675.89 kb/s
GeneralUnique ID : 244309439513555376033966836566539415713 (0xB7CC4959BD3D997A99BB68C25A54B0A1)Complete name : Tarzan.2013.Spa.Video.BDRip.1080p.dfcbit.mkvFormat : MatroskaFormat version : Version 2File size : 8.35 GiBDuration : 1h 34mnOverall bit rate : 12.7 MbpsEncoded date : UTC 2014-06-28 12:18:05Writing application : mkvmerge v4.0.0 ('The Stars were mine') built on Jun 6 2010 16:18:42Writing library : libebml v1.0.0 + libmatroska v1.0.0
VideoID : 1Format : AVCFormat/Info : Advanced Video CodecFormat profile : High@L4.1Format settings, CABAC : YesFormat settings, ReFrames : 4 framesCodec ID : V_MPEG4/ISO/AVCDuration : 1h 34mnBit rate : 9 675 KbpsWidth : 1 920 pixelsHeight : 804 pixelsDisplay aspect ratio : 2.40:1Frame rate mode : ConstantFrame rate : 23.976 fpsColor space : YUVChroma subsampling : 4:2:0Bit depth : 8 bitsScan type : ProgressiveBits/(Pixel*Frame) : 0.261Stream size : 6.36 GiB (74%)Title : NTSC, 1920x804 (2.388:1), BDRip 1080p - tRuAVC & Multfilmy [DFCbit]Writing library : x264 core 142 r2431kMod ac76440Encoding settings : cabac=1 / ref=4 / deblock=1:-2:-1 / analyse=0x3:0x133 / me=umh / subme=11 / psy=1 / fade_compensate=0.00 / psy_rd=0.63:0.00 / mixed_ref=1 / me_range=32 / chroma_me=1 / trellis=2 / 8x8dct=1 / cqm=0 / deadzone=21,11 / fast_pskip=0 / chroma_qp_offset=-2 / threads=12 / lookahead_threads=3 / sliced_threads=0 / nr=0 / decimate=1 / interlaced=0 / bluray_compat=0 / constrained_intra=0 / fgo=0 / bframes=12 / b_pyramid=2 / b_adapt=2 / b_bias=0 / direct=1 / weightb=1 / open_gop=0 / weightp=2 / keyint=250 / keyint_min=23 / scenecut=40 / intra_refresh=0 / rc_lookahead=70 / rc=2pass / mbtree=0 / bitrate=9675 / ratetol=1.0 / qcomp=0.81 / qpmin=0 / qpmax=69 / qpstep=4 / cplxblur=20.0 / qblur=0.5 / vbv_maxrate=50000 / vbv_bufsize=62500 / nal_hrd=none / filler=0 / ip_ratio=1.40 / pb_ratio=1.30 / aq=3:0.90Language : EnglishDefault : YesForced : NoColor primaries : BT.709Transfer characteristics : BT.709Matrix coefficients : BT.709
Audio #1ID : 2Format : DTSFormat/Info : Digital Theater SystemsMode : 16Format settings, Endianness : BigCodec ID : A_DTSDuration : 1h 34mnBit rate mode : ConstantBit rate : 1 509 KbpsChannel(s) : 6 channelsChannel positions : Front: L C R, Side: L R, LFESampling rate : 48.0 KHzBit depth : 16 bitsCompression mode : LossyStream size : 1 016 MiB (12%)Title : DTS / 5.1 / 48 kHz / 1509 kbps / 16 bit - Дубляж | BD RUSLanguage : RussianDefault : YesForced : No
Audio #2ID : 3Format : DTSFormat/Info : Digital Theater SystemsMode : 16Format settings, Endianness : BigCodec ID : A_DTSDuration : 1h 34mnBit rate mode : ConstantBit rate : 1 509 KbpsChannel(s) : 6 channelsChannel positions : Front: L C R, Side: L R, LFESampling rate : 48.0 KHzBit depth : 24 bitsCompression mode : LossyStream size : 1 016 MiB (12%)Title : DTS / 5.1 / 48 kHz / 1509 kbps / 24 bit - DubbingLanguage : EnglishDefault : NoForced : No
TextID : 4Format : UTF-8Codec ID : S_TEXT/UTF8Codec ID/Info : UTF-8 Plain TextTitle : SRT, FullLanguage : EnglishDefault : NoForced : No
Menu00:00:00.000 : en:Chapter 100:07:14.476 : en:Chapter 200:12:42.345 : en:Chapter 300:18:34.155 : en:Chapter 400:24:37.226 : en:Chapter 500:30:00.674 : en:Chapter 600:36:27.852 : en:Chapter 700:42:10.862 : en:Chapter 800:48:28.447 : en:Chapter 900:53:27.579 : en:Chapter 1001:00:07.312 : en:Chapter 1101:05:34.139 : en:Chapter 1201:11:37.502 : en:Chapter 1301:18:31.290 : en:Chapter 1401:25:16.987 : en:Chapter 1501:28:01.985 : en:Chapter 16
Скриншоты
Скриншот с названием мультфильма
--BDRip 1080p


Source Blu-Ray

Релиз от групп | and | -Данный релиз не будет воспроизводиться на бытовых плеерах не поддерживающих MKV и H.264FAQ по просмотру AVC
  • Смогу ли я запустить AVC фильм на своём компьютере?
  • Сэмпл из раздачи не воспроизводится или отсутствует звук/изображение. Что делать?
  • Что такое H.264/AVC и зачем он нужен?
  • Что за дурацкий формат .MKV?
  • Почему MKV? Чем AVI хуже?
  • Не могу переключить/включить/выключить аудио/видео дорожки и/или субтитры. Что делать?
  • Будут ли фильмы в таком формате проигрываться на бытовых плеерах без компьютера?
  • Проигрываю фильм, а картинка очень сильно отличается от скринов. Что не так?
  • Можно ли сконвертировать AVC в DVD?
  • Почему в характеристиках видеопотока указано два разрешения и что такое анаморфное разрешение?
    Обсуждение релизов в AVC формате || Свежие AVC рипы

  • _________________
    Показать сообщения:    

    Текущее время: Сегодня 10:56

    Часовой пояс: GMT



    Вы не можете начинать темы
    Вы не можете отвечать на сообщения
    Вы не можете редактировать свои сообщения
    Вы не можете удалять свои сообщения
    Вы не можете голосовать в опросах
    Вы не можете прикреплять файлы к сообщениям
    Вы не можете скачивать файлы