Ивановский Торрент трекер
Яндекс.Погода
 

[Цитировать]
HUNTER

| Все релизы мультфильма || BDRip-AVC, 2.91 GB |- P R E S E N T SТарзан / Tarzan- Страна: Германия
Жанр: мультфильм, легенда, приключения, семейный
Продолжительность: 01:34:10
Год выпуска: 2013
Перевод: Профессиональный (полное дублирование)
Субтитры: русских нет-Режиссёр: Райнхард Клоосс / Reinhard Klooss
Роли озвучивали: Келлан Латс, Спенсер Лок, Тревор Ст. Джон, Лес Бабб, Брайан Блум, Брайан Хаски, Роберт Капрон, Джейми Рэй Ньюман, Марк Деклин, Джо Осмонд, Сесиль Фэй, Эдд Осмонд, Антон Зетерхольм, Ребекка Рини...
Роли дублировали: Станислав Тикунов, Наталья Терешкова, Сергей Смирнов, Андрей Казанцев, Томас Шлеккер, Василий Дахненко, Валерий Сторожик и др.- | | - Рекомендуется присутствие родителей-Описание: Во время крушения американского воздушного лайнера в джунглях погибли все пассажиры, выжил лишь один младенец. Он стал приемышем в стае диких обезьян, которые выкормили, вырастили его, научили выживать в этом жестком мире естественного отбора... Пришло время, и теперь мощный и ловкий, он должен защитить свой мир от врагов. Но главное - он должен снова стать человеком...-Доп. информация: BDRip-AVC 500p сделан с Blu-Ray диска Tarzan 2013 2D+3D SPA BluRay 1080p AVC DTS-HD HR5.1-CHDBits (Spanish Transfer).-Сэмпл/Sample (23.8 MB, 1 минута)-Качество: BDRip-AVC
Формат: MKV
Видео: 1194x500 (2.388:1), 23,976 fps, ~3524 kbps avg, 0.246 bit/pixel
Аудио #1: Русский, AC3, 6 ch, 48 kHz, 448 kbps - Дубляж | BD RUS
Аудио #2: English, AC3, 6 ch, 48 kHz, 448 kbps - Dubbing
Субтитры: English (Full)
Навигация по главам: есть (16 не именованных глав)
MediaInfo / x264Log
x264Log
raw [info]: 1194x500p 1:1 @ 24000/1001 fps (cfr)x264 [info]: using SAR=1/1x264 [info]: using cpu capabilities: MMX2 SSE2Fast SSSE3 SSE4.2 AVX XOP FMA4 FMA3 LZCNT BMI1x264 [info]: profile High, level 4.1x264 [info]: frame I:1502 Avg QP:16.03 size:109881 PSNR Mean Y:47.12 U:49.20 V:49.41 Avg:47.71 Global:46.77x264 [info]: frame P:36179 Avg QP:18.87 size: 35317 PSNR Mean Y:45.10 U:47.17 V:47.50 Avg:45.69 Global:44.57x264 [info]: frame B:97776 Avg QP:21.26 size: 10697 PSNR Mean Y:44.88 U:47.18 V:47.52 Avg:45.52 Global:44.11x264 [info]: consecutive B-frames: 4.9% 5.1% 12.9% 36.5% 11.9% 24.8% 1.3% 0.6% 0.4% 0.7% 0.2% 0.3% 0.1% 0.3%x264 [info]: mb I I16..4: 4.7% 70.2% 25.1%x264 [info]: mb P I16..4: 0.7% 14.1% 3.9% P16..4: 23.4% 28.0% 17.1% 4.0% 0.5% skip: 8.4%x264 [info]: mb B I16..4: 0.2% 2.6% 0.8% B16..8: 26.2% 19.2% 3.5% direct: 6.1% skip:41.4% L0:32.8% L1:40.5% BI:26.7%x264 [info]: 8x8 transform intra:73.6% inter:57.7%x264 [info]: coded y,uvDC,uvAC intra: 83.2% 85.1% 63.8% inter: 24.7% 20.2% 6.2%x264 [info]: i16 v,h,dc,p: 46% 16% 7% 31%x264 [info]: i8 v,h,dc,ddl,ddr,vr,hd,vl,hu: 14% 12% 8% 8% 11% 11% 11% 12% 14%x264 [info]: i4 v,h,dc,ddl,ddr,vr,hd,vl,hu: 41% 8% 8% 5% 9% 8% 8% 6% 7%x264 [info]: i8c dc,h,v,p: 36% 27% 21% 16%x264 [info]: Weighted P-Frames: Y:5.0% UV:3.0%x264 [info]: ref P L0: 62.1% 14.4% 11.2% 4.1% 2.6% 1.8% 1.3% 0.8% 0.6% 0.5% 0.4% 0.1% 0.0%x264 [info]: ref B L0: 87.3% 7.5% 2.5% 1.0% 0.6% 0.4% 0.3% 0.2% 0.1% 0.0%x264 [info]: ref B L1: 95.6% 4.4%x264 [info]: SSIM Mean Y:0.9879841 (19.202db)x264 [info]: PSNR Mean Y:44.965 U:47.199 V:47.533 Avg:45.590 Global:44.248 kb/s:3524.05encoded 135457 frames, 10.82 fps, 3524.05 kb/s
GeneralUnique ID : 245455466925850347501073228424569966830 (0xB8A900DD4A0650B2930D2839ED8850EE)Complete name : Tarzan.2013.BDRip-AVC.500p.dfcbit.mkvFormat : MatroskaFormat version : Version 2File size : 2.91 GiBDuration : 1h 34mnOverall bit rate : 4 422 KbpsEncoded date : UTC 2014-06-25 16:59:37Writing application : mkvmerge v4.0.0 ('The Stars were mine') built on Jun 6 2010 16:18:42Writing library : libebml v1.0.0 + libmatroska v1.0.0
VideoID : 1Format : AVCFormat/Info : Advanced Video CodecFormat profile : High@L4.1Format settings, CABAC : YesFormat settings, ReFrames : 11 framesCodec ID : V_MPEG4/ISO/AVCDuration : 1h 34mnBit rate : 3 524 KbpsWidth : 1 194 pixelsHeight : 500 pixelsDisplay aspect ratio : 2.40:1Frame rate mode : ConstantFrame rate : 23.976 fpsColor space : YUVChroma subsampling : 4:2:0Bit depth : 8 bitsScan type : ProgressiveBits/(Pixel*Frame) : 0.246Stream size : 2.32 GiB (78%)Title : NTSC, 1194x500 (2.388:1), BDRip-AVC 500p - tRuAVC & Multfilmy [DFCbit]Writing library : x264 core 142 r2431kMod ac76440Encoding settings : cabac=1 / ref=11 / deblock=1:-2:-1 / analyse=0x3:0x133 / me=umh / subme=11 / psy=1 / fade_compensate=0.00 / psy_rd=0.63:0.00 / mixed_ref=1 / me_range=32 / chroma_me=1 / trellis=2 / 8x8dct=1 / cqm=0 / deadzone=21,11 / fast_pskip=0 / chroma_qp_offset=-2 / threads=12 / lookahead_threads=3 / sliced_threads=0 / nr=0 / decimate=1 / interlaced=0 / bluray_compat=0 / constrained_intra=0 / fgo=0 / bframes=13 / b_pyramid=2 / b_adapt=2 / b_bias=0 / direct=1 / weightb=1 / open_gop=0 / weightp=2 / keyint=250 / keyint_min=23 / scenecut=40 / intra_refresh=0 / rc_lookahead=70 / rc=2pass / mbtree=0 / bitrate=3524 / ratetol=1.0 / qcomp=0.81 / qpmin=0 / qpmax=69 / qpstep=4 / cplxblur=20.0 / qblur=0.5 / vbv_maxrate=50000 / vbv_bufsize=62500 / nal_hrd=none / filler=0 / ip_ratio=1.40 / pb_ratio=1.30 / aq=3:0.90Language : EnglishDefault : YesForced : NoColor primaries : BT.709Transfer characteristics : BT.709Matrix coefficients : BT.709
Audio #1ID : 2Format : AC-3Format/Info : Audio Coding 3Mode extension : CM (complete main)Format settings, Endianness : BigCodec ID : A_AC3Duration : 1h 34mnBit rate mode : ConstantBit rate : 448 KbpsChannel(s) : 6 channelsChannel positions : Front: L C R, Side: L R, LFESampling rate : 48.0 KHzBit depth : 16 bitsCompression mode : LossyStream size : 302 MiB (10%)Title : AC3, 6 ch, 48 kHz, 448 kbps - Дубляж | BD RUSLanguage : RussianDefault : YesForced : No
Audio #2ID : 3Format : AC-3Format/Info : Audio Coding 3Mode extension : CM (complete main)Format settings, Endianness : BigCodec ID : A_AC3Duration : 1h 34mnBit rate mode : ConstantBit rate : 448 KbpsChannel(s) : 6 channelsChannel positions : Front: L C R, Side: L R, LFESampling rate : 48.0 KHzBit depth : 16 bitsCompression mode : LossyStream size : 302 MiB (10%)Title : AC3, 6 ch, 48 kHz, 448 kbps - DubbingLanguage : EnglishDefault : NoForced : No
TextID : 4Format : UTF-8Codec ID : S_TEXT/UTF8Codec ID/Info : UTF-8 Plain TextTitle : SRT, FullLanguage : EnglishDefault : NoForced : No
Menu00:00:00.000 : en:Chapter 100:07:14.476 : en:Chapter 200:12:42.345 : en:Chapter 300:18:34.155 : en:Chapter 400:24:37.226 : en:Chapter 500:30:00.674 : en:Chapter 600:36:27.852 : en:Chapter 700:42:10.862 : en:Chapter 800:48:28.447 : en:Chapter 900:53:27.579 : en:Chapter 1001:00:07.312 : en:Chapter 1101:05:34.139 : en:Chapter 1201:11:37.502 : en:Chapter 1301:18:31.290 : en:Chapter 1401:25:16.987 : en:Chapter 1501:28:01.985 : en:Chapter 16
Скриншоты
Скриншот с названием мультфильма
--BDRip-AVC


Source Blu-Ray

Релиз от групп | and | -Данный релиз не будет воспроизводиться на бытовых плеерах не поддерживающих MKV и H.264Fочему в характеристиках видеопотока указано два разрешения и что такое анаморфное разрешение?[/url]
Обсуждение релизов в AVC формате || Свежие AVC рипы
Показать сообщения:    

Текущее время: 18-Окт 19:29

Часовой пояс: UTC - 1


Вы не можете начинать темы
Вы не можете отвечать на сообщения
Вы не можете редактировать свои сообщения
Вы не можете удалять свои сообщения
Вы не можете голосовать в опросах
Вы не можете прикреплять файлы к сообщениям
Вы не можете скачивать файлы

!ВНИМАНИЕ!
Сайт не предоставляет электронные версии произведений, а занимается лишь коллекционированием и каталогизацией ссылок, присылаемых и публикуемых на форуме нашими читателями. Если вы являетесь правообладателем какого-либо представленного материала и не желаете, чтобы ссылка на него находилась в нашем каталоге, свяжитесь с нами, и мы незамедлительно удалим ее. Файлы для обмена на трекере предоставлены пользователями сайта, и администрация не несет ответственности за их содержание. Просьба не заливать файлы, защищенные авторскими правами, а также файлы нелегального содержания!