Ивановский Торрент трекер
Яндекс.Погода
 

[Цитировать]
HUNTER

Тарзан / Tarzan- Год выпуска: 1999
Выпущено: США
Жанр: мультфильм, драма, мелодрама, приключения, семейный, музыка
Продолжительность: 01:28:21
Перевод: Профессиональный (полное дублирование)
+ Оригинальная звуковая дорожка (отдельно)
+ Авторский одноголосый А.Гаврилов (отдельно)
+ Авторский одноголосый Ю.Живов (отдельно)
Субтитры: Русские, английские SDH (внешние srt*)-Режиссер: Крис Бак / Chris Buck, Кевин Лима / Kevin Lima
В ролях: Брайан Блессид, Гленн Клоуз, Минни Драйвер, Тони Голдуин, Найджел Хоторн, Лэнс Хенриксен, Уэйн Найт, Алекс Д. Линц, Рози О’Доннелл, Бет Андерсон
О фильме: Тарзан вырос среди горилл, в таинственных джунглях, где не ступала нога человека. Враждебное царство диких животных долго не хотело признавать хрупкого мальчика.
Вскоре на глазах у всех слабый малыш превратился в храброго юношу и стал быстрее пантеры, сильнее тигра, зорче орла. Но когда Тарзан становится настоящим королем джунглей, происходит неожиданная встреча, которая полностью меняет его жизнь…
Релиз:
Автор: sociolog_melvas
Качество: BDRip (источник: / BD-Remux / 1080p)
Формат: AVI
Видео: 704x400 (1.76:1), 23,976 fps, XviD build 65 ~1896 kbps avg, 0.28 bit/pixel
Аудио #1: 48 kHz, AC3 Dolby Digital, 3/2 (L,C,R,l,r) + LFE ch, ~448.00 kbps avg dub
Аудио #2: 48 kHz, AC3 Dolby Digital, 3/2 (L,C,R,l,r) + LFE ch, ~448.00 kbps avg (отдельно) eng
Аудио #3: 48 kHz, AC3 Dolby Digital, 3/2 (L,C,R,l,r) + LFE ch, ~448.00 kbps avg (отдельно) jivov
Аудио #4: 48 kHz, AC3 Dolby Digital, 3/2 (L,C,R,l,r) + LFE ch, ~448.00 kbps avg (отдельно) gavrilov
Размер: 1487.44 Mb (1/3 DVD-R)
Скачать: Семпл-

Кадры из фильма


-

Mi

Формат : AVI
Формат/Информация : Audio Video Interleave
Размер файла : 1,45 Гбайт
Продолжительность : 1 ч. 28 м.
Общий поток : 2353 Кбит/сек
Название фильма : Тарзан / Tarzan (1999) BDRip
Режиссёр : sociolog_melvas
Жанр : мелодрама, приключения
Программа кодирования : VirtualDubMod 1.5.10.2 (build 2540/release)
Примечание : 19.09.2014
Видео
Идентификатор : 0
Формат : MPEG-4 Visual
Профиль формата : Advanced Simple@L5
Параметр BVOP формата : 1
Параметр QPel формата : Нет
Параметр GMC формата : Без точки перехода
Параметр матрицы формата : Выборочная
Идентификатор кодека : XVID
Идентификатор кодека/Подсказка : XviD
Продолжительность : 1 ч. 28 м.
Битрейт : 1896 Кбит/сек
Ширина : 704 пикселя
Высота : 400 пикселей
Соотношение сторон : 16:9
Частота кадров : 23,976 кадра/сек
Цветовое пространство : YUV
Субдискретизация насыщенности : 4:2:0
Битовая глубина : 8 бит
Тип развёртки : Прогрессивная
Метод сжатия : С потерями
Бит/(Пиксели*Кадры) : 0.281
Размер потока : 1,17 Гбайт (81%)
Библиотека кодирования : XviD 65
Аудио
Идентификатор : 1
Формат : AC-3
Формат/Информация : Audio Coding 3
Расширение режима : CM (complete main)
Параметр Endianness формата : Big
Идентификатор кодека : 2000
Продолжительность : 1 ч. 28 м.
Вид битрейта : Постоянный
Битрейт : 448 Кбит/сек
Каналы : 6 каналов
Расположение каналов : Front: L C R, Side: L R, LFE
Частота : 48,0 КГц
Битовая глубина : 16 бит
Метод сжатия : С потерями
Размер потока : 283 Мбайт (19%)
Выравнивание : Разделение по промежуткам
Продолжительность промежутка : 42 мс. (1,00 видеокадр)
Время предзагрузки промежутка : 500 мс.
-


Показать сообщения:    

Текущее время: 14-Дек 09:53

Часовой пояс: UTC ± 0


Вы не можете начинать темы
Вы не можете отвечать на сообщения
Вы не можете редактировать свои сообщения
Вы не можете удалять свои сообщения
Вы не можете голосовать в опросах
Вы не можете прикреплять файлы к сообщениям
Вы не можете скачивать файлы

!ВНИМАНИЕ!
Сайт не предоставляет электронные версии произведений, а занимается лишь коллекционированием и каталогизацией ссылок, присылаемых и публикуемых на форуме нашими читателями. Если вы являетесь правообладателем какого-либо представленного материала и не желаете, чтобы ссылка на него находилась в нашем каталоге, свяжитесь с нами, и мы незамедлительно удалим ее. Файлы для обмена на трекере предоставлены пользователями сайта, и администрация не несет ответственности за их содержание. Просьба не заливать файлы, защищенные авторскими правами, а также файлы нелегального содержания!