Важное объявление!
У Нас Все раздачи мультитрекерные, при нуле пиров в релизах, можете смело вставать на закачку!
Статистика раздачи
Размер:     |    Зарегистрирован:     |    Скачан:     |   
Нет
 
     
 
 
Автор Сообщение

HUNTER

Стаж:
5 лет 1 месяц
Сообщений:
68426

Репутация: 101

[+] [-]
Вне форума [Профиль] [ЛС]

Тарзан 2 / Tarzan II
Страна: США
Жанр: Мультфильм, приключения, семейный
Продолжительность: 01:08:08
Год выпуска: 2005
Перевод: Профессиональный (дублированный)
Русские субтитры: есть-Режиссёр: Брайан Смит / Brian Smith-Роли озвучивали: Харрисон Чад, Джордж Карлин, Брэд Гэррет, Рон Перлман, Эстелль Харрис, Гленн Клоуз, Лэнс Хенриксен, Бренда Грейт, Харрисон Фан, Тиффани Эванс и др.-Описание: До того, как стать Королем Джунглей, Тарзан был неуклюжим маленьким мальчиком, пытающимся приспособиться к окружающему миру. Но однажды он совершает ошибку и тем самым подвергает риску свою семью. С этого момента Тарзан решает, что им будет безопаснее без него, и покидает тех, кого любит. Во время своего опасного путешествия Тарзан знакомится с загадочным Зугором - самым могущественным представителем тех мест. Будучи вместе, Тарзан и Зугор понимают, что быть разными не так уж и плохо, а друзья и семья - две самые главные ценности на свете...-Релиз от: -Благодарности:
afedrenkv - Видео
pavelMMM - Аудио, субтитры
*Sergeant_am* - синхронизация аудио, переконвертация субтитров в .srt, сборка .mkv
SergeZuich - тайминг + исправление некоторых ошибок субтитров
-Семпл: http://multi-up.com/1090822-Качество: HDTV 1080i
Формат: MKV-Видео: H.264 1920x1080i (16:9) 25 fps 5879 Кбит/сек
Аудио 1: AC3, 5.1 ch, 384 Кбит/сек (Русский)
Аудио 2: AC3, 5.1 ch, 448 Кбит/сек (English)
Субтитры: Русские, английские

Отчёт MediaInfo

ОбщееУникальный идентификатор : 236904061764886267364863962655916548761 (0xB23A1009D482ECD98F2E31574E2BE299)Полное имя : C:\Downloads\Тарзан 2.mkvФормат : MatroskaВерсия формата : Version 2Размер файла : 3,26 ГбайтПродолжительность : 1 ч. 8 м.Режим общего битрейта : ПеременныйОбщий поток : 6848 Кбит/секДата кодирования : UTC 2016-02-26 13:14:16Программа кодирования : mkvmerge v4.0.0 ('The Stars were mine') сборка от Jun 6 2010 16:18:42Библиотека кодирования : libebml v1.0.0 + libmatroska v1.0.0
ВидеоИдентификатор : 1Формат : AVCФормат/Информация : Advanced Video CodecПрофиль формата : High@L4Параметр CABAC формата : ДаПараметр ReFrames формата : 3 кадраИдентификатор кодека : V_MPEG4/ISO/AVCПродолжительность : 1 ч. 8 м.Вид битрейта : ПеременныйБитрейт : 5879 Кбит/секМаксимальный битрейт : 40,0 Мбит/секШирина : 1920 пикселейВысота : 1080 пикселейСоотношение сторон : 16:9Режим частоты кадров : ПостоянныйЧастота кадров : 25,000 кадров/секСтандарт вещания : ComponentЦветовое пространство : YUVСубдискретизация насыщенности : 4:2:0Битовая глубина : 8 битТип развёртки : ЧересстрочнаяМетод сохранения типа развёртки : Раздельные поляПорядок развёртки : Верхнее поле первоеБит/(Пиксели*Кадры) : 0.113Размер потока : 2,80 Гбайт (86%)Язык : RussianDefault : НетForced : НетЦветовой диапазон : LimitedОсновные цвета : BT.709Характеристики трансфера : BT.709Коэффициенты матрицы : BT.709
Аудио #1Идентификатор : 2Формат : AC-3Формат/Информация : Audio Coding 3Расширение режима : CM (complete main)Параметр Endianness формата : BigИдентификатор кодека : A_AC3Продолжительность : 1 ч. 8 м.Вид битрейта : ПостоянныйБитрейт : 384 Кбит/секКаналы : 6 каналовРасположение каналов : Front: L C R, Side: L R, LFEЧастота : 48,0 КГцЧастота кадров : 31,250 кадров/сек (1536 spf)Метод сжатия : С потерямиРазмер потока : 187 Мбайт (6%)Язык : RussianDefault : ДаForced : Нет
Аудио #2Идентификатор : 3Формат : AC-3Формат/Информация : Audio Coding 3Расширение режима : CM (complete main)Параметр Endianness формата : BigИдентификатор кодека : A_AC3Продолжительность : 1 ч. 8 м.Вид битрейта : ПостоянныйБитрейт : 448 Кбит/секКаналы : 6 каналовРасположение каналов : Front: L C R, Side: L R, LFEЧастота : 48,0 КГцЧастота кадров : 31,250 кадров/сек (1536 spf)Метод сжатия : С потерямиРазмер потока : 218 Мбайт (7%)Язык : EnglishDefault : НетForced : Нет
Текст #1Идентификатор : 4Формат : UTF-8Идентификатор кодека : S_TEXT/UTF8Идентификатор кодека/Информация : UTF-8 Plain TextЯзык : RussianDefault : НетForced : Нет
Текст #2Идентификатор : 5Формат : UTF-8Идентификатор кодека : S_TEXT/UTF8Идентификатор кодека/Информация : UTF-8 Plain TextЯзык : EnglishDefault : НетForced : Нет

Скриншоты


_________________
Показать сообщения:    

Текущее время: Сегодня 20:21

Часовой пояс: GMT



Вы не можете начинать темы
Вы не можете отвечать на сообщения
Вы не можете редактировать свои сообщения
Вы не можете удалять свои сообщения
Вы не можете голосовать в опросах
Вы не можете прикреплять файлы к сообщениям
Вы не можете скачивать файлы