Важное объявление!
У Нас Все раздачи мультитрекерные, при нуле пиров в релизах, можете смело вставать на закачку!
 
Автор Сообщение

HUNTER

Стаж:
4 года 7 месяцев
Сообщений:
61460

Репутация: 101

[+] [-]
Вне форума [Профиль] [ЛС]

Тарзан, человек-обезьяна / Tarzan, the Ape Man
Страна: США
Студия: Metro-Goldwyn-Mayer
Жанр: приключения
Год выпуска: 1981
Продолжительность: 01:54:54
Перевод: Профессиональный (многоголосый закадровый) НТВ+
Cубтитры: английские
Оригинальная аудиодорожка: английский
Режиссер: Джон Дерек / John Derek
В ролях: Бо Дерек, Ричард Харрис, Джон Филлип Ло, Майлз О’Киффи, Стив Стронг, Леонард Бэйли, Уилфрид Хайд-Уайт, Лори Майн
Описание: Охотник по имени Джеймс Паркер ищет в Африке мифическую «белую обезьяну». Он воссоединяется с дочерью Джейн после смерти её матери, а затем они обнаруживают, что «белая обезьяна» — это в действительности Тарзан, дикарь, выросший в джунглях. Джеймс Паркер хочет поймать Тарзана живым или мертвым и доставить в Англию.
Альтернативное описание: В 1910 году в самую что ни на есть дикую западноафриканскую глушь приезжает молодая женщина Джейн Паркер - блондинка с голубыми глазами, длинными ногами, мягкой загорелой кожей и со страстным желанием найти в этих экзотических местах родного отца, ушедшего из семьи, когда девочке был всего один год. Джеймс Паркер, отец Джейн, не ждал приезда дочери, но еще больше они оба не ожидали, что окажутся втянутыми в приключение, которое навсегда изменит жизнь Джейн...
Доп. информация: Фильм озвучен компанией НТВ+ по заказу НТВ. Текст читали - Любовь Германова, Елена Соловьёва, Владимир Вихров, Александр Рахленко, Алексей Сафонов. Дорожка взята отсюда. Спасибо palmeiras.

Sample
Тип релиза: WEB-DL 720p
Контейнер: MKV
Видео: MPEG4 AVC Video, H264, 16:9, 1276x720, 23.976 fps, 3837 kbps
Аудио: Russian (AC3, 2 ch, 192 kbps, 16 bits, 48.0 KHz) - НТВ+
Аудио 2: English (AC3, 6 ch, 448 kbps, 16 bits, 48.0 KHz) - оригинал
Формат субтитров: softsub (SRT)

MediaInfo

General
Unique ID : 214624774010647878651873722408490738398 (0xA1773A58246ED8B5941BCE53696FA2DE)
Complete name : E:\1\Tarzan the Ape Man 1981\Tarzan, the Ape Man 1981 720p WEB-DL.mkv
Format : Matroska
Format version : Version 4 / Version 2
File size : 3.67 GiB
Duration : 1h 54mn
Overall bit rate : 4 568 Kbps
Encoded date : UTC 2014-07-05 20:31:42
Writing application : mkvmerge v6.1.0 ('Old Devil') built on Mar 2 2013 14:32:37
Writing library : libebml v1.3.0 + libmatroska v1.4.0
Video
ID : 1
Format : AVC
Format/Info : Advanced Video Codec
Format profile : High@L3.1
Format settings, CABAC : No
Format settings, ReFrames : 2 frames
Codec ID : V_MPEG4/ISO/AVC
Duration : 1h 54mn
Bit rate : 3 837 Kbps
Width : 1 276 pixels
Height : 720 pixels
Display aspect ratio : 16:9
Frame rate mode : Constant
Frame rate : 23.976 fps
Color space : YUV
Chroma subsampling : 4:2:0
Bit depth : 8 bits
Scan type : Progressive
Bits/(Pixel*Frame) : 0.174
Stream size : 3.08 GiB (84%)
Language : English
Default : Yes
Forced : No
Color primaries : BT.709
Transfer characteristics : BT.709
Matrix coefficients : BT.709
Audio #1
ID : 2
Format : AC-3
Format/Info : Audio Coding 3
Mode extension : CM (complete main)
Format settings, Endianness : Big
Codec ID : A_AC3
Duration : 1h 54mn
Bit rate mode : Constant
Bit rate : 192 Kbps
Channel count : 2 channels
Channel positions : Front: L R
Sampling rate : 48.0 KHz
Bit depth : 16 bits
Compression mode : Lossy
Stream size : 158 MiB (4%)
Language : Russian
Default : Yes
Forced : No
Audio #2
ID : 3
Format : AC-3
Format/Info : Audio Coding 3
Mode extension : CM (complete main)
Format settings, Endianness : Big
Codec ID : A_AC3
Duration : 1h 54mn
Bit rate mode : Constant
Bit rate : 448 Kbps
Channel count : 6 channels
Channel positions : Front: L C R, Side: L R, LFE
Sampling rate : 48.0 KHz
Bit depth : 16 bits
Compression mode : Lossy
Stream size : 368 MiB (10%)
Language : English
Default : No
Forced : No
Text
ID : 4
Format : UTF-8
Codec ID : S_TEXT/UTF8
Codec ID/Info : UTF-8 Plain Text
Language : English
Default : No
Forced : No
Menu
00:00:00.000 : en:Lady to our taste (Credits).
00:06:02.000 : en:Welcoming Jane.
00:12:05.000 : en:Strong emotions.
00:19:36.000 : en:Another Parker fib?
00:23:21.000 : en:Pictures of an expedition.
00:26:43.000 : en:Elephant serenade.
00:29:06.000 : en:Fear of the unknown.
00:35:50.000 : en:Up the escarpment.
00:38:50.000 : en:Ocean bathing.
00:44:22.000 : en:Lion and woman tamer.
00:48:30.000 : en:What this ape wants.
00:52:52.000 : en:Deadly darkness.
00:54:55.000 : en:Taken by Tarzan.
00:58:00.000 : en:Python peril.
01:02:28.000 : en:Animal escort.
01:06:41.000 : en:Her first time.
01:09:30.000 : en:Mutual curiosity.
01:13:47.000 : en:Night's unrest.
01:17:01.000 : en:Next morning.
01:21:29.000 : en:Strange problem.
01:24:01.000 : en:Wanted.
01:28:15.000 : en:Captives.
01:30:20.000 : en:Cheetah brings word.
01:35:37.000 : en:Parker's ivory touch.
01:40:42.000 : en:Tarzan vs. Ivory King.
01:44:00.000 : en:Final loving pictures.
01:50:04.000 : en:End Credits romp.

Скриншоты


_________________
Показать сообщения:    

Текущее время: Сегодня 07:21

Часовой пояс: GMT



Вы не можете начинать темы
Вы не можете отвечать на сообщения
Вы не можете редактировать свои сообщения
Вы не можете удалять свои сообщения
Вы не можете голосовать в опросах
Вы не можете прикреплять файлы к сообщениям
Вы не можете скачивать файлы
Наши партнеры: интернет магазин Ивановского трикотажа textilla.ru