Танцуй со мной / Софи и Я (Михаил Шевчук) [2016, Россия, драма, музыка, комедия, HDTV 1080i] Original Rus :: Ивановский Торрент трекер
Важное объявление!
У Нас Все раздачи мультитрекерные, при нуле пиров в релизах, можете смело вставать на закачку!
Статистика раздачи
Размер:     |    Зарегистрирован:     |    Скачан:     |   
Нет
 
     
 
 
Автор Сообщение

HUNTER

Стаж:
4 года 11 месяцев
Сообщений:
66052

Репутация: 101

[+] [-]
Вне форума [Профиль] [ЛС]

Танцуй со мной / Софи и Я«Шаг вперед навстречу любви»
Страна: Россия
Студия: Мосфильм
Жанр: драма, музыка, комедия
Год выпуска: 2016
Продолжительность: 01:34:26
-
Перевод: Не требуется
Cубтитры: нет
Оригинальная аудиодорожка: русский
-
Режиссер: Михаил Шевчук
В ролях: Анастасия Новикова, Лука Саббиони, Юрий Кригер, Нонна Гришаева, Лукерья Ильяшенко, Анар Халилов, Василий Ракша, Александр Резалин, Александра Киршина, Екатерина Шмакова
-
Описание: Некоторые учатся танцевать, а другие рождены для этого. То же самое и в любви. Итальянский режиссер Лука Маретти приезжает в Россию, чтобы снять танцевальный фильм о своей первой любви. Выбирая исполнительницу главной роли, Лука влюбляется в молодую актрису Катю. Катя же влюбляется в Никиту - исполнителя роли молодого Луки - известного танцора и обольстителя. Теперь их ждут новые чувства, страсть, соперничество, испытания, и все это в зажигательном ритме танца...
[img]https://rating.kinopoisk.ru/916722.gif[/img]
>>> Собственная запись со спутника Eutelsat 36A/36B (36°E) | Кинопремьера HD (эфир 17.10.2016г.)
Тип релиза: HDTV 1080i
Контейнер: MKV
Видео: MPEG-4 AVC / PAL 16:9 / 1920x1080 (1,78:1) / 7251 kbps / 25,000 fps / 0.070 bit/pixel / High@L4
Аудио 1: Russian / Dolby Digital Audio / 5.1 Ch / 48 kHz / 448 kbps / 16 bit
Аудио 2: Russian / MPEG-2 Audio / 2.0 Ch / 48 kHz / 192 kbps / 16 bit

MediaInfo

Код:
Общее
Уникальный идентификатор                 : 177397789623815873915319813332628046981 (0x8575924E827526C7A0A9B8B0F6C68485)
Полное имя                               : D:\Танцуй со мной _Софи и Я 2016 1080i HDTV DD2.0 MPEG4-flaSI-I\Танцуй со мной _Софи и Я 2016 1080i HDTV DD5.1 MPEG4-flaSI-I.mkv
Формат                                   : Matroska
Версия формата                           : Version 4 / Version 2
Размер файла                             : 5,21 Гбайт
Продолжительность                        : 1 ч. 34 м.
Общий поток                              : 7895 Кбит/сек
Название фильма                          : Release for RuTracker © flaSI-I
Дата кодирования                         : UTC 2016-10-17 21:26:12
Программа кодирования                    : mkvmerge v9.5.0 ('Quiet Fire') 64bit
Библиотека кодирования                   : libebml v1.3.4 + libmatroska v1.4.5
Видео
Идентификатор                            : 1
Формат                                   : AVC
Формат/Информация                        : Advanced Video Codec
Профиль формата                          : High@L4
Параметр CABAC формата                   : Да
Параметр ReFrames формата                : 4 кадра
Идентификатор кодека                     : V_MPEG4/ISO/AVC
Продолжительность                        : 1 ч. 34 м.
Битрейт                                  : 7251 Кбит/сек
Ширина                                   : 1920 пикселей
Высота                                   : 1080 пикселей
Соотношение сторон                       : 16:9
Режим частоты кадров                     : Переменный
Частота кадров                           : 50,000 кадров/сек
Частота кадров в оригинале               : 25,000 кадров/сек
Стандарт вещания                         : Component
Цветовое пространство                    : YUV
Субдискретизация насыщенности            : 4:2:0
Битовая глубина                          : 8 бит
Тип развёртки                            : Чересстрочная
Метод сохранения типа развёртки          : Раздельные поля
Порядок развёртки                        : Верхнее поле первое
Бит/(Пиксели*Кадры)                      : 0.070
Размер потока                            : 4,78 Гбайт (92%)
Язык                                     : Russian
Default                                  : Да
Forced                                   : Нет
Цветовой диапазон                        : Limited
Основные цвета                           : BT.709
Характеристики трансфера                 : BT.709
Коэффициенты матрицы                     : BT.709
Аудио #1
Идентификатор                            : 2
Формат                                   : AC-3
Формат/Информация                        : Audio Coding 3
Расширение режима                        : CM (complete main)
Параметр Endianness формата              : Big
Идентификатор кодека                     : A_AC3
Продолжительность                        : 1 ч. 34 м.
Вид битрейта                             : Постоянный
Битрейт                                  : 448 Кбит/сек
Каналы                                   : 6 каналов
Расположение каналов                     : Front: L C R, Side: L R, LFE
Частота                                  : 48,0 КГц
Частота кадров                           : 31,250 кадров/сек (1536 spf)
Метод сжатия                             : С потерями
Размер потока                            : 303 Мбайт (6%)
Заголовок                                : DD 5.1
Язык                                     : Russian
Default                                  : Да
Forced                                   : Нет
Аудио #2
Идентификатор                            : 3
Формат                                   : MPEG Audio
Версия формата                           : Version 1
Профиль формата                          : Layer 2
Идентификатор кодека                     : A_MPEG/L2
Идентификатор кодека/Подсказка           : MP2
Продолжительность                        : 1 ч. 34 м.
Вид битрейта                             : Постоянный
Битрейт                                  : 192 Кбит/сек
Каналы                                   : 2 канала
Частота                                  : 48,0 КГц
Частота кадров                           : 41,667 кадра/сек (1152 spf)
Метод сжатия                             : С потерями
Размер потока                            : 130 Мбайт (2%)
Заголовок                                : DD 2.1
Язык                                     : Russian
Default                                  : Нет
Forced                                   : Нет

_________________
Показать сообщения:    

Текущее время: Сегодня 20:39

Часовой пояс: GMT



Вы не можете начинать темы
Вы не можете отвечать на сообщения
Вы не можете редактировать свои сообщения
Вы не можете удалять свои сообщения
Вы не можете голосовать в опросах
Вы не можете прикреплять файлы к сообщениям
Вы не можете скачивать файлы